[ฝรั่ง] El Camino: A Breaking Bad Movie (2019) เอล คามิโน่: ดับเครื่องชน คนดีแตก (เดอะ มูฟวี่) [1080p] [Netflix] [พากย์อังกฤษ 5.1] [บรรยายไทย + อังกฤษ] [เสียงอังกฤษ + ซับไทย] [OPENLOAD]

0

El Camino: A Breaking Bad Movie (2019)

โหลดหนัง El Camino: A Breaking Bad Movie (2019) เอล คามิโน่: ดับเครื่องชน คนดีแตก (เดอะ มูฟวี่)

El Camino: A Breaking Bad Movie (2019) 2h 2min | Action, Drama | 11 October 2019 (USA) Summary: After escaping Jack and his gang, Jesse Pinkman goes on the run from the police and tries to escape his own inner turmoil.
Countries: USALanguages: English

เรื่องย่อ El Camino: A Breaking Bad Movie (2019) เอล คามิโน่: ดับเครื่องชน คนดีแตก (เดอะ มูฟวี่)

เรื่องราวใน El Camion นั้นก็จะเป็นเหตุการณ์ที่เล่าเรื่องราวต่อจากเหตุการ ณ์ในตอนจบของซีซันที่ 5 ของตัวซีรีส์ Breaking Bad โดยจะมีตัวละครจากฉบับซีรีส์กลับมาอีกครั้งทั้ง Charles Baker และ Matt Jones และอาจจะมีตัวละครเก่าๆ กลับมาให้ได้เห็นหน้าค่าตากันอีกครั้งราว 10 ตัวละครเลยทีเดียวโดยตัวซีรีส์นั้นยังคงเป็นผลงานการ สร้างของ Vince Gilligan ผู้ให้กำเนิดซีรีส์ Breaking Bad

Complete name : El.Camino.A.Breaking.Bad.Movie.2019.1080p.NF.WEB-DL.AC3.x264.Subthai.One2loadup.com.mkv
Format : Matroska
Format version : Version 4
File size : 3.85 GiB
Duration : 2 h 2 min
Overall bit rate mode : Variable
Overall bit rate : 4 494 kb/s
Movie name : El.Camino.A.Breaking.Bad.Movie.2019.1080p.NF.WEB-DL.AC3.x264.Subthai.One2loadup.com
Encoded date : UTC 2019-10-11 07:49:23
Writing application : mkvmerge v38.0.0 (‘The Silent Type’) 64-bit
Writing library : libebml v1.3.9 + libmatroska v1.5.2

Video
ID : 1
Format : AVC
Format/Info : Advanced Video Codec
Format profile : [email protected]
Format settings : CABAC / 3 Ref Frames
Format settings, CABAC : Yes
Format settings, ReFrames : 3 frames
Codec ID : V_MPEG4/ISO/AVC
Duration : 2 h 2 min
Bit rate mode : Variable
Bit rate : 3 650 kb/s
Maximum bit rate : 5 475 kb/s
Width : 1 920 pixels
Height : 1 080 pixels
Display aspect ratio : 16:9
Frame rate mode : Constant
Frame rate : 24.000 FPS
Color space : YUV
Chroma subsampling : 4:2:0
Bit depth : 8 bits
Scan type : Progressive
Bits/(Pixel*Frame) : 0.073
Stream size : 3.11 GiB (81%)
Title : El.Camino.A.Breaking.Bad.Movie.2019.1080p.NF.WEB-DL.AC3.x264.Subthai.One2loadup.com
Writing library : x264 core 148 r2715 7e75228
Encoding settings : cabac=1 / ref=3 / deblock=1:0:0 / analyse=0x1:0x111 / me=umh / subme=10 / psy=1 / psy_rd=1.00:0.00 / mixed_ref=1 / me_range=24 / chroma_me=1 / trellis=2 / 8x8dct=0 / cqm=0 / deadzone=21,11 / fast_pskip=1 / chroma_qp_offset=-2 / threads=8 / lookahead_threads=1 / sliced_threads=0 / nr=0 / decimate=1 / interlaced=0 / bluray_compat=0 / stitchable=1 / constrained_intra=0 / bframes=2 / b_pyramid=0 / b_adapt=2 / b_bias=0 / direct=3 / weightb=1 / open_gop=0 / weightp=2 / keyint=250 / keyint_min=24 / scenecut=0 / intra_refresh=0 / rc_lookahead=48 / rc=2pass / mbtree=1 / bitrate=3650 / ratetol=1.0 / qcomp=0.50 / qpmin=6 / qpmax=51 / qpstep=4 / cplxblur=20.0 / qblur=0.5 / vbv_maxrate=5475 / vbv_bufsize=7300 / nal_hrd=vbr / filler=0 / ip_ratio=1.40 / aq=1:1.00
Language : English
Default : Yes
Forced : No

Audio
ID : 2
Format : E-AC-3 JOC
Format/Info : Enhanced AC-3 with Joint Object Coding
Commercial name : Dolby Digital Plus with Dolby Atmos
Codec ID : A_EAC3
Duration : 2 h 2 min
Bit rate mode : Constant
Bit rate : 768 kb/s
Channel(s) : 6 channels
Channel layout : L R C LFE Ls Rs
Sampling rate : 48.0 kHz
Frame rate : 31.250 FPS (1536 SPF)
Compression mode : Lossy
Stream size : 674 MiB (17%)
Title : English
Language : English
Service kind : Complete Main
Default : Yes
Forced : No
Complexity index : 16
Number of dynamic objects : 15
Bed channel count : 1 channel
Bed channel configuration : LFE

Text #1
ID : 3
Format : UTF-8
Codec ID : S_TEXT/UTF8
Codec ID/Info : UTF-8 Plain Text
Duration : 2 h 1 min
Bit rate : 98 b/s
Count of elements : 1213
Stream size : 87.6 KiB (0%)
Title : Thai SRT From Netflix
Language : Thai
Default : Yes
Forced : No

Text #2
ID : 4
Format : VobSub
Muxing mode : zlib
Codec ID : S_VOBSUB
Codec ID/Info : Picture based subtitle format used on DVDs
Duration : 2 h 1 min
Bit rate : 9 473 b/s
Count of elements : 1213
Stream size : 8.26 MiB (0%)
Title : Thai 1080p From Netflix
Language : Thai
Default : No
Forced : No

Text #3
ID : 5
Format : VobSub
Muxing mode : zlib
Codec ID : S_VOBSUB
Codec ID/Info : Picture based subtitle format used on DVDs
Duration : 2 h 1 min
Bit rate : 9 484 b/s
Count of elements : 1213
Stream size : 8.27 MiB (0%)
Title : Thai 1080p Yellow From Netflix
Language : Thai
Default : No
Forced : No

Text #4
ID : 6
Format : VobSub
Muxing mode : zlib
Codec ID : S_VOBSUB
Codec ID/Info : Picture based subtitle format used on DVDs
Duration : 2 h 1 min
Bit rate : 11.3 kb/s
Count of elements : 1213
Stream size : 9.85 MiB (0%)
Title : Thai 1080p From Netflix [BIG]
Language : Thai
Default : No
Forced : No

Text #5
ID : 7
Format : PGS
Muxing mode : zlib
Codec ID : S_HDMV/PGS
Codec ID/Info : Picture based subtitle format used on BDs/HD-DVDs
Duration : 2 h 1 min
Bit rate : 40.5 kb/s
Count of elements : 2426
Stream size : 35.3 MiB (1%)
Title : Thai PGS From Netflix
Language : Thai
Default : No
Forced : No

Text #6
ID : 8
Format : PGS
Muxing mode : zlib
Codec ID : S_HDMV/PGS
Codec ID/Info : Picture based subtitle format used on BDs/HD-DVDs
Duration : 2 h 1 min
Bit rate : 40.5 kb/s
Count of elements : 2426
Stream size : 35.3 MiB (1%)
Title : Thai PGS Yellow From Netflix
Language : Thai
Default : No
Forced : No

Text #7
ID : 9
Format : PGS
Muxing mode : zlib
Codec ID : S_HDMV/PGS
Codec ID/Info : Picture based subtitle format used on BDs/HD-DVDs
Duration : 2 h 1 min
Bit rate : 50.1 kb/s
Count of elements : 2426
Stream size : 43.7 MiB (1%)
Title : Thai PGS From Netflix [BIG]
Language : Thai
Default : No
Forced : No

Text #8
ID : 10
Format : PGS
Muxing mode : zlib
Codec ID : S_HDMV/PGS
Codec ID/Info : Picture based subtitle format used on BDs/HD-DVDs
Duration : 2 h 1 min
Bit rate : 48.5 kb/s
Count of elements : 3088
Stream size : 42.2 MiB (1%)
Title : English PGS
Language : English
Default : No
Forced : No

DOWNLOAD


PART01 |||| PART02 |||| PART03 |||| PART04

PART01 |||| PART02 |||| PART03 |||| PART04

PART01 |||| PART02 |||| PART03 |||| PART04

PART01 |||| PART02 |||| PART03 |||| PART04


Leave A Reply

Your email address will not be published.