[ฝรั่ง] Dragon Soldiers (2020) ยุทธการล่ามังกร [1080p] [FOX] [พากย์ไทย 2.0 + เสียงอังกฤษ 2.0] [บรรยายไทยฝัง] [เสียงไทยมาสเตอร์ + ซับไทยฝัง] [USERLOAD]

0

โหลดหนัง Dragon Soldiers (2020) ยุทธการล่ามังกร

Dragon Soldiers 89min | Action, Fantasy | May 11, 2020 (United Kingdom) Summary: A lethal creature hides in the woods that surround a suburban area killing anyone who gets near. An elite group of soldiers comes into action.
Countries: United StatesLanguages: English

เรื่องย่อ Dragon Soldiers (2020) ยุทธการล่ามังกร

ในชานเมืองของเมืองเล็กๆ มีสัตว์ประหลาดตัวร้ายแฝงตัวอยู่โดยรอบในป่าฆ่าทุกคนที่เดินเข้ามาใกล้เกินไปด้วยความสิ้นหวังที่จะหยุดการโจมตี กลุ่มทหารชั้นยอดถูกเรียกเข้ามาเพื่อจัดการกับสถานการณ์ นักล่ากลายเป็นผู้ถูกล่าอย่างรวดเร็วขณะที่พวกเขาต่อ สู้เพื่อฆ่าสัตว์ร้ายที่พ่นไฟได้

Complete name : Dragon.Soldiers.2020.1080p.BluRay.AAC.264.THM.One2loadup.com.mkv
Format : Matroska
Format version : Version 4
File size : 3.22 GiB
Duration : 1 h 25 min
Overall bit rate : 5 384 kb/s
Movie name : Dragon.Soldiers.2020.1080p.BluRay.AAC.264.THM.One2loadup.com
Encoded date : UTC 2021-08-18 15:03:54
Writing application : mkvmerge v60.0.0 (‘Are We Copies?’) 64-bit
Writing library : libebml v1.4.2 + libmatroska v1.6.4
Cover : Yes
Attachments : cover

Video
ID : 1
Format : AVC
Format/Info : Advanced Video Codec
Format profile : [email protected]
Format settings : CABAC / 4 Ref Frames
Format settings, CABAC : Yes
Format settings, Reference : 4 frames
Codec ID : V_MPEG4/ISO/AVC
Duration : 1 h 25 min
Bit rate : 4 960 kb/s
Width : 1 920 pixels
Height : 1 080 pixels
Display aspect ratio : 16:9
Frame rate mode : Constant
Frame rate : 30.000 FPS
Color space : YUV
Chroma subsampling : 4:2:0
Bit depth : 8 bits
Scan type : Progressive
Bits/(Pixel*Frame) : 0.080
Stream size : 2.97 GiB (92%)
Title : Dragon.Soldiers.2020.1080p.BluRay.AAC.264.THM.One2loadup.com
Language : English
Default : Yes
Forced : No

Audio #1
ID : 2
Format : AAC LC
Format/Info : Advanced Audio Codec Low Complexity
Codec ID : A_AAC-2
Duration : 1 h 25 min
Bit rate : 210 kb/s
Channel(s) : 2 channels
Channel layout : L R
Sampling rate : 44.1 kHz
Frame rate : 43.066 FPS (1024 SPF)
Compression mode : Lossy
Stream size : 129 MiB (4%)
Language : Thai
Default : Yes
Forced : No

Audio #2
ID : 3
Format : AAC LC
Format/Info : Advanced Audio Codec Low Complexity
Codec ID : A_AAC-2
Duration : 1 h 25 min
Bit rate : 210 kb/s
Channel(s) : 2 channels
Channel layout : L R
Sampling rate : 44.1 kHz
Frame rate : 43.066 FPS (1024 SPF)
Compression mode : Lossy
Stream size : 129 MiB (4%)
Language : English
Default : Yes
Forced : No

DOWNLOAD


PART01 |||| PART02 |||| PART03 |||| PART04

PART01 |||| PART02 |||| PART03 |||| PART04

PART01 |||| PART02 |||| PART03 |||| PART04

PART01 |||| PART02 |||| PART03 |||| PART04

PART01 |||| PART02 |||| PART03 |||| PART04


Leave A Reply

อีเมล์ของคุณจะไม่แสดงให้เห็น Your email address will not be published.

%d bloggers like this: