[ฝรั่ง] Come Away (2020) ปีเตอร์แพน กับ อลิซ ตะลุยแดนมหัศจรรย์ [1080p] [พากย์ไทยโรง 2.0 + เสียงอังกฤษ 5.1] [บรรยายไทย(แปล) + อังกฤษ] [เสียงไทยโรง + ซับไทย] [PANDAFILE]

0

โหลดหนัง Come Away (2020) ปีเตอร์แพน กับ อลิซ ตะลุยแดนมหัศจรรย์

Come Away (2020) 94min | Adventure, Drama, Fantasy | 13 November 2020 (USA) Summary: When their eldest brother dies, Peter and Alice seek to save their parents from despair until they are forced to choose between home and imagination, setting the stage for their iconic journeys into Wonderland and Neverland.
Countries: UKLanguages: English

เรื่องย่อ Come Away (2020) ปีเตอร์แพน กับ อลิซ ตะลุยแดนมหัศจรรย์

กาลครั้งหนึ่งนานมาแล้ว ก่อนจะมี “อลิซในดินแดนมหัศจรรย์” และ “ปีเตอร์ แพน” รู้หรือไม่ว่าแท้จริงแล้ว อลิซ กับ ปีเตอร์ เป็นพี่น้องกัน ! ซึ่งพวกเขายังมีพี่ชายอีกคนชื่อ เดวิด สามพี่น้องเติบโตมาด้วยจินตนาการอันเหลือเชื่อจนพาพวกเขาลอยล่องไปสู่ดินแดนแห่งความฝันจนกระทั่งเกิดเหตุการณ์ไม่คาดฝันขึ้นจนครอบครัวตกอยู่ในสถานการณ์ลำบาก ปีเตอร์ กับ อลิซ กลายเป็นผู้นำในการประสานรอยร้าวในครอบครัวอีกครั้งด้วยจินตนาการอันไกลโพ้นของพวกเขาจนเป็นจุดเริ่มต้นให้ปีเตอร์ ได้เข้าไปในเนเวอร์แลนด์ส่วนอลิซแยกไปผจญภัยในวันเดอร์แลนด์แดนมหัศจรรย์…

Complete name : Come.Away.2020.1080p.WEBRip.AC3.x264.THR.One2loadup.com.mkv
Format : Matroska
Format version : Version 4
File size : 3.95 GiB
Duration : 1 h 34 min
Overall bit rate : 5 998 kb/s
Movie name : Come.Away.2020.1080p.WEBRip.AC3.x264.THR.One2loadup.com
Encoded date : UTC 2021-04-19 01:03:21
Writing application : mkvmerge v50.0.0 (‘Awakenings’) 64-bit
Writing library : libebml v1.4.0 + libmatroska v1.6.2

Video
ID : 1
Format : AVC
Format/Info : Advanced Video Codec
Format profile : [email protected]
Format settings : CABAC / 2 Ref Frames
Format settings, CABAC : Yes
Format settings, Reference : 2 frames
Codec ID : V_MPEG4/ISO/AVC
Duration : 1 h 34 min
Bit rate : 5 506 kb/s
Width : 1 920 pixels
Height : 1 080 pixels
Display aspect ratio : 16:9
Frame rate mode : Constant
Frame rate : 23.976 (24000/1001) FPS
Color space : YUV
Chroma subsampling : 4:2:0
Bit depth : 8 bits
Scan type : Progressive
Bits/(Pixel*Frame) : 0.111
Stream size : 3.63 GiB (92%)
Title : Come.Away.2020.1080p.WEBRip.AC3.x264.THR.One2loadup.com
Writing library : x264 core 155 r2901 7d0ff22
Language : English
Default : Yes
Forced : No
Color range : Limited
Color primaries : BT.709
Transfer characteristics : BT.709
Matrix coefficients : BT.709

Audio #1
ID : 2
Format : AC-3
Format/Info : Audio Coding 3
Commercial name : Dolby Digital
Codec ID : A_AC3
Duration : 1 h 34 min
Bit rate mode : Constant
Bit rate : 384 kb/s
Channel(s) : 6 channels
Channel layout : L R C LFE Ls Rs
Sampling rate : 48.0 kHz
Frame rate : 31.250 FPS (1536 SPF)
Compression mode : Lossy
Stream size : 259 MiB (6%)
Language : English
Service kind : Complete Main
Default : Yes
Forced : No

Audio #2
ID : 6
Format : AAC LC
Format/Info : Advanced Audio Codec Low Complexity
Codec ID : A_AAC-2
Duration : 1 h 34 min
Bit rate : 96.0 kb/s
Channel(s) : 2 channels
Channel layout : L R
Sampling rate : 48.0 kHz
Frame rate : 46.875 FPS (1024 SPF)
Compression mode : Lossy
Stream size : 64.6 MiB (2%)
Title : THR
Default : No
Forced : No

Text #1
ID : 3
Format : UTF-8
Codec ID : S_TEXT/UTF8
Codec ID/Info : UTF-8 Plain Text
Duration : 1 h 26 min
Bit rate : 36 b/s
Count of elements : 812
Stream size : 23.1 KiB (0%)
Language : English
Default : Yes
Forced : No

Text #2
ID : 4
Format : UTF-8
Codec ID : S_TEXT/UTF8
Codec ID/Info : UTF-8 Plain Text
Duration : 1 h 26 min
Bit rate : 89 b/s
Count of elements : 788
Stream size : 56.7 KiB (0%)
Language : Thai
Default : No
Forced : No

Text #3
ID : 5
Format : PGS
Muxing mode : zlib
Codec ID : S_HDMV/PGS
Codec ID/Info : Picture based subtitle format used on BDs/HD-DVDs
Duration : 1 h 26 min
Bit rate : 22.4 kb/s
Count of elements : 1576
Stream size : 13.9 MiB (0%)
Title : Thai1080p.Angsana
Language : Thai
Default : No
Forced : No

DOWNLOAD


PART01 |||| PART02 |||| PART03 |||| PART04 |||| PART05

PART01 |||| PART02 |||| PART03 |||| PART04 |||| PART05

PART01 |||| PART02 |||| PART03 |||| PART04 |||| PART05

PART01 |||| PART02 |||| PART03 |||| PART04 |||| PART05

PART01 |||| PART02 |||| PART03 |||| PART04 |||| PART05


Leave A Reply

Your email address will not be published.

%d bloggers like this: