[ฝรั่ง] Breaking In (2018) แม่จอมอึดบุกบ้านฆ่าโจร [1080p] [พากย์อังกฤษ 5.1] [Soundtrack บรรยายไทย] [เสียงอังกฤษ + ซับไทย] [PANDAFILE]

2

Breaking In (2018)

โหลดหนัง Breaking In (2018) แม่จอมอึดบุกบ้านฆ่าโจร

Breaking In | May 11, 2018 (United States) Summary: A woman fights to protect her family during a home invasion.
Countries: United States, JapanLanguages: English

เรื่องย่อ Breaking In (2018) แม่จอมอึดบุกบ้านฆ่าโจร

เรื่องราวก็ง่ายๆ คุณแม่พาลูกสองคนไปพักในบ้านสุดหรูที่มีระบบรักษาความปลอดภัยสุดไฮเทค แต่ขณะที่เธอคุยโทรศัพท์อยู่ข้างนอก ก็มีโจรบุกเข้ามาแล้วเปิดระบบทำให้ลูกของเธอถูกขังอยู่ในบ้าน

Complete name : Breaking.In.2018.1080p.WEB-DL.DD5.1.H264.One2loadup.com.mkv
Format : Matroska
Format version : Version 4 / Version 2
File size : 3.08 GiB
Duration : 1 h 28 min
Overall bit rate : 4 991 kb/s
Movie name : Breaking.In.2018.1080p.WEB-DL.DD5.1.H264.One2loadup.com
Encoded date : UTC 2018-07-26 15:56:37
Writing application : mkvmerge v25.0.0 (‘Prog Noir’) 64-bit
Writing library : libebml v1.3.6 + libmatroska v1.4.9
Cover : Yes
Attachments : small_cover.jpg / small_cover_land.jpg / cover.jpg / cover_land.jpg

Video
ID : 1
Format : AVC
Format/Info : Advanced Video Codec
Format profile : [email protected]
Format settings : CABAC / 5 Ref Frames
Format settings, CABAC : Yes
Format settings, ReFrames : 5 frames
Codec ID : V_MPEG4/ISO/AVC
Duration : 1 h 28 min
Bit rate : 4 602 kb/s
Width : 1 920 pixels
Height : 804 pixels
Display aspect ratio : 2.40:1
Frame rate mode : Constant
Frame rate : 23.976 (24000/1001) FPS
Color space : YUV
Chroma subsampling : 4:2:0
Bit depth : 8 bits
Scan type : Progressive
Bits/(Pixel*Frame) : 0.124
Stream size : 2.84 GiB (92%)
Title : Breaking.In.2018.1080p.WEB-DL.DD5.1.H264.One2loadup.com
Language : English
Default : Yes
Forced : No
Color range : Limited
Color primaries : BT.709
Transfer characteristics : BT.709
Matrix coefficients : BT.709

Audio
ID : 2
Format : AC-3
Format/Info : Audio Coding 3
Codec ID : A_AC3
Duration : 1 h 28 min
Bit rate mode : Constant
Bit rate : 384 kb/s
Channel(s) : 6 channels
Channel positions : Front: L C R, Side: L R, LFE
Sampling rate : 48.0 kHz
Frame rate : 31.250 FPS (1536 SPF)
Bit depth : 16 bits
Compression mode : Lossy
Delay relative to video : -42 ms
Stream size : 243 MiB (8%)
Title : Breaking.In.2018.1080p.WEB-DL.DD5.1.H264.One2loadup.com
Language : English
Service kind : Complete Main
Default : Yes
Forced : No

Text #1
ID : 3
Format : UTF-8
Codec ID : S_TEXT/UTF8
Codec ID/Info : UTF-8 Plain Text
Duration : 1 h 24 min
Bit rate : 35 b/s
Count of elements : 812
Stream size : 22.2 KiB (0%)
Title : Eng
Language : English
Default : No
Forced : No

Text #2
ID : 4
Format : VobSub
Muxing mode : zlib
Codec ID : S_VOBSUB
Codec ID/Info : Picture based subtitle format used on DVDs
Duration : 1 h 25 min
Bit rate : 5 728 b/s
Count of elements : 814
Stream size : 3.51 MiB (0%)
Title : Thai.VOB
Language : Thai
Default : Yes
Forced : Yes

Text #3
ID : 5
Format : UTF-8
Codec ID : S_TEXT/UTF8
Codec ID/Info : UTF-8 Plain Text
Duration : 1 h 25 min
Bit rate : 77 b/s
Count of elements : 814
Stream size : 48.6 KiB (0%)
Title : Thai.SRT
Language : Thai
Default : No
Forced : Yes

Menu
00:00:00.000 : en:1
00:05:17.192 : en:2
00:10:04.687 : en:3
00:14:05.552 : en:4
00:17:31.049 : en:5
00:21:47.263 : en:6
00:25:36.408 : en:7
00:31:10.575 : en:8
00:37:03.135 : en:9
00:41:02.123 : en:10
00:44:34.794 : en:11
00:50:42.161 : en:12
00:54:38.605 : en:13
01:00:33.751 : en:14
01:04:43.917 : en:15
01:10:14.163 : en:16
01:13:31.568 : en:17
01:16:39.547 : en:18
01:21:18.617 : en:19
01:25:53.141 : en:20

DOWNLOAD


PART01 |||| PART02 |||| PART03 |||| PART04

PART01 |||| PART02 |||| PART03 |||| PART04

PART01 |||| PART02 |||| PART03 |||| PART04

PART01 |||| PART02 |||| PART03 |||| PART04


2 Comments
  1. Captain Barbossa
    Captain Barbossa says

    โหลดไม่ได้ครับ

    1. Admin
      Admin says

      แก้ไขเรียบร้อยฮ๊ะ

Leave A Reply

อีเมล์ของคุณจะไม่แสดงให้เห็น Your email address will not be published.

%d bloggers like this: