[ฝรั่ง] Black Adam (2022) แบล็ก อดัม [1080p] [พากย์ไทยโรง 2.0 + เสียงอังกฤษ 2.0] [บรรยายเกาหลี (ฝัง)] [เสียงไทยโรง + ซับเกาหลีฝัง] [PANDAFILE]

6

โหลดหนัง Black Adam (2022) แบล็ก อดัม

Black Adam | October 21, 2022 (United States) Summary: Nearly 5,000 years after he was bestowed with the almighty powers of the Egyptian gods--and imprisoned just as quickly--Black Adam is freed from his earthly tomb, ready to unleash his unique... Read all
Countries: United States, Canada, New Zealand, HungaryLanguages: English

เรื่องย่อ Black Adam (2022) แบล็ก อดัม

เรื่องราวของ Black Adam ชายผู้แข็งแกร่งที่สุด แต่ถูกประวัติศาสตร์บันทึกว่าเป็นวายร้ายที่ก่อเหตุสังหารฟาโรห์ด้วยแผนการสะเทือนบัลลังก์ หลังจากถูกจับคุมขังนานถึง 5,000 ปี เขาก็ฟื้นกลับมาอีกครั้งท่ามกลางความวุ่นวายของโลกยุคใหม่ แล้วพบว่าเมืองแห่งนี้ประชาชนยังคงโดนกดขี่ด้วยอาวุธ ความรุนแรง และความแร้นแค้น โดยที่โลกยุคนี้มี เดอะจัสติส โซไซตี้ แหล่งรวมตัวของเหล่าแชมเปี้ยนทำหน้าที่สอดส่องรักษาพิทักษ์โลก แน่นอนว่าเมื่อ Black Adam กลับมา พวกเขาจึงต้องรวมตัวกันต่อสู้ เพราะมองว่า Black Adam ที่มีพละกำลังแข็งแกร่งคือตัวอันตรายที่ไม่มีใครเอาชนะได้ หวาดกลัวว่าสักวันจะสร้างความเดือดร้อนให้คนทั้งโลก

Complete name : [HD].Black_Adam.2022.1080p.AAC.x264.THR.One2loadup.com.mkv
Format : Matroska
Format version : Version 4
File size : 10.7 GiB
Duration : 2 h 4 min
Overall bit rate : 12.2 Mb/s
Encoded date : UTC 2022-11-16 05:36:25
Writing application : mkvmerge v63.0.0 (‘Everything’) 64-bit
Writing library : libebml v1.4.2 + libmatroska v1.6.4

Video
ID : 1
Format : AVC
Format/Info : Advanced Video Codec
Format profile : [email protected]
Format settings : CABAC / 4 Ref Frames
Format settings, CABAC : Yes
Format settings, Reference : 4 frames
Codec ID : V_MPEG4/ISO/AVC
Duration : 2 h 4 min
Bit rate : 11.9 Mb/s
Width : 1 920 pixels
Height : 800 pixels
Display aspect ratio : 2.40:1
Frame rate mode : Constant
Frame rate : 23.976 (24000/1001) FPS
Color space : YUV
Chroma subsampling : 4:2:0
Bit depth : 8 bits
Scan type : Progressive
Bits/(Pixel*Frame) : 0.324
Stream size : 10.3 GiB (96%)
Writing library : x264 core 142 r2479 dd79a61
Encoding settings : cabac=1 / ref=1 / deblock=1:0:0 / analyse=0x3:0x3 / me=dia / subme=1 / psy=1 / psy_rd=1.00:0.00 / mixed_ref=0 / me_range=16 / chroma_me=1 / trellis=0 / 8x8dct=1 / cqm=0 / deadzone=21,11 / fast_pskip=1 / chroma_qp_offset=0 / threads=48 / lookahead_threads=6 / sliced_threads=0 / nr=0 / decimate=1 / interlaced=0 / bluray_compat=0 / constrained_intra=0 / bframes=3 / b_pyramid=2 / b_adapt=1 / b_bias=0 / direct=1 / weightb=1 / open_gop=0 / weightp=1 / keyint=240 / keyint_min=24 / scenecut=40 / intra_refresh=0 / rc_lookahead=0 / rc=abr / mbtree=0 / bitrate=11938 / ratetol=1.0 / qcomp=0.60 / qpmin=0 / qpmax=69 / qpstep=4 / vbv_maxrate=62500 / vbv_bufsize=78125 / nal_hrd=none / filler=0 / ip_ratio=1.40 / pb_ratio=1.30 / aq=1:1.00
Default : Yes
Forced : No
Color range : Limited
Color primaries : BT.709
Transfer characteristics : BT.709
Matrix coefficients : BT.709

Audio #1
ID : 2
Format : AAC LC
Format/Info : Advanced Audio Codec Low Complexity
Codec ID : A_AAC-2
Duration : 2 h 4 min
Bit rate : 256 kb/s
Channel(s) : 2 channels
Channel layout : L R
Sampling rate : 48.0 kHz
Frame rate : 46.875 FPS (1024 SPF)
Compression mode : Lossy
Stream size : 229 MiB (2%)
Default : Yes
Forced : No

Audio #2
ID : 3
Format : AC-3
Format/Info : Audio Coding 3
Commercial name : Dolby Digital
Codec ID : A_AC3
Duration : 2 h 4 min
Bit rate mode : Constant
Bit rate : 192 kb/s
Channel(s) : 2 channels
Channel layout : L R
Sampling rate : 48.0 kHz
Frame rate : 31.250 FPS (1536 SPF)
Compression mode : Lossy
Stream size : 171 MiB (2%)
Language : Thai
Service kind : Complete Main
Default : Yes
Forced : No

DOWNLOAD


PART01 |||| PART02 |||| PART03 |||| PART04 |||| PART05 |||| PART06

PART01 |||| PART02 |||| PART03 |||| PART04 |||| PART05 |||| PART06

PART01 |||| PART02 |||| PART03 |||| PART04 |||| PART05 |||| PART06

PART01 |||| PART02 |||| PART03 |||| PART04 |||| PART05 |||| PART06

PART01 |||| PART02 |||| PART03 |||| PART04 |||| PART05 |||| PART06


6 Comments
  1. choo108
    choo108 says

    โหลด บ่ ได๋

    1. admin
      admin says

      โหลดได้ปกติ

  2. bobame says
    Your comment is awaiting moderation.

    10 GB ่เลยเรอะ why นี่มัน 1080p หรือ 4k อะ
    นี่มัน 1080p หรือ 4k อะ

    1. admin
      admin says

      น่าจะเป็นไฟล์ภาพแบบใหญ่ ตอนนี้ไฟล์หนังจริงๆ ยังไม่มานะฮ๊ะ ไฟล์มันจะมีขนาดเยอะบ้างนะฮ๊ะ

  3. saasahhhh says
    Your comment is awaiting moderation.

    มันไม่ใช่พากย์ไทยอะ

    1. admin
      admin says

      มันมีให้เลือกสองเสียงนะฮ๊ะ แนะนำใช้โปรแกรม VLC ในการเปิดดูแล้วเปลี่ยนเสียงดูฮ๊ะ

Leave A Reply

อีเมล์ของคุณจะไม่แสดงให้เห็น Your email address will not be published.

%d bloggers like this: