[ฝรั่ง] A Vigilante (2019) แค้นนี้ต้องชำระ [1080p] [พากย์อังกฤษ 5.1] [Soundtrack บรรยายไทย] [เสียงอังกฤษ + ซับไทย] [PANDAFILE]

0

โหลดหนัง A Vigilante (2019) แค้นนี้ต้องชำระ

A Vigilante (2018) 1h 31min | Crime, Drama, Mystery | 29 March 2019 (USA) Summary: After escaping her violent husband, Sadie makes it her life's mission to help free others in danger. After months of rigorous training in survival skills, boxing, and lethal martial arts, she is back with a vengeance.
Countries: USALanguages: English

เรื่องย่อ A Vigilante (2019) แค้นนี้ต้องชำระ

A Vigilante หนัง Drama/Thriller จากปี 2018 ที่คะแนนมะเขือดีงามถึง 92% เรื่องราวของการต่อสู้ทั้งทางร่างกายและจิตใจของ ‘Sadie’ ชะนีวัยกลางคนที่รับจ็อบทำงาน รับจ้างเคลียร์ปัญหาชีวิตให้แก่คนที่โดนทารุณกรรมโดนทำร้ายร่างกาย ที่ส่วนมากจะหนักไปในแง่ของคนเป็นเมียที่โดนผัวทำร้ายตบตีจนชีวิตแทบทนไม่ไหว เนื่องจากเหตุและประสบการณ์ที่เธอเคยเจอมาครั้นในอดีต ปมหนักอึ้งในชีวิตบางอย่าง มันจึงทำให้เธอต้องอุทิศชีวิตและร่างกายเพื่อช่วยเหล ือผู้คนเหล่านี้กวาดล้างคนชั่วที่ส่วนมากมาในคราบสามีที่ชอบเห็นผู้หญิงเป็นของเล่น!!

Complete name : A.Vigilante.2019.1080p.WEB-DL.DTS.x265.Subthai.One2loadup.com.mkv
Format : Matroska
Format version : Version 4
File size : 4.81 GiB
Duration : 1 h 31 min
Overall bit rate : 7 556 kb/s
Movie name : A.Vigilante.2019.1080p.WEB-DL.DTS.x265.Subthai.One2loadup.com
Encoded date : UTC 2020-05-17 13:48:13
Writing application : mkvmerge v35.0.0 (‘All The Love In The World’) 64-bit
Writing library : libebml v1.3.9 + libmatroska v1.5.2
Cover : Yes
Attachments : cover.jpg
Writing frontend : StaxRip v2.0.2.0

Video
ID : 1
Format : HEVC
Format/Info : High Efficiency Video Coding
Format profile : Main [email protected]@Main
Codec ID : V_MPEGH/ISO/HEVC
Duration : 1 h 31 min
Bit rate : 5 981 kb/s
Width : 1 920 pixels
Height : 1 040 pixels
Display aspect ratio : 1.85:1
Frame rate mode : Constant
Frame rate : 23.976 (24000/1001) FPS
Color space : YUV
Chroma subsampling : 4:2:0
Bit depth : 10 bits
Bits/(Pixel*Frame) : 0.125
Stream size : 3.80 GiB (79%)
Title : A.Vigilante.2019.1080p.WEB-DL.DTS.x265.Subthai.One2loadup.com
Writing library : x265 3.1+2-g764455672+26:[Windows][GCC 8.3.0][64 bit] Yuuki 10bit
Encoding settings : rc=abr / bitrate=6000 / qcomp=0.60 / qpstep=4 / stats-write=0 / stats-read=0 / no-lossless / no-cu-lossless / aq-mode=3 / aq-strength=1.00 / cbqpoffs=0 / crqpoffs=0 / ipratio=1.40 / pbratio=1.30 / psy-rd=2.00 / psy-rdoq=1.50 / deblock=-1:-1 / ref=4 / limit-refs=3 / limit-modes / bframes=4 / b-adapt=2 / bframe-bias=0 / b-pyramid / no-b-intra / weightp / no-weightb / min-keyint=23 / max-keyint=250 / rc-lookahead=40 / gop-lookahead=0 / scenecut=40 / radl=0 / max-cu-size=64 / min-cu-size=8 / me=3 / subme=3 / merange=57 / rdoq-level=2 / rd=4 / rdpenalty=0 / dynamic-rd=0.00 / no-rd-refine / —– / cutree / sao / rect / no-amp / open-gop / wpp / no-pmode / no-pme / no-psnr / no-ssim / nr-intra=0 / nr-inter=0 / no-constrained-intra / strong-intra-smoothing / max-tu-size=32 / tu-inter-depth=1 / tu-intra-depth=1 / limit-tu=0 / qg-size=32 / qpmax=69 / qpmin=0 / —– / cpuid=1049583 / frame-threads=5 / numa-pools=16,16 / log-level=2 / input-csp=1 / input-res=1920×1040 / interlace=0 / level-idc=0 / high-tier=1 / uhd-bd=0 / no-allow-non-conformance / no-repeat-headers / no-aud / no-hrd / info / hash=0 / no-temporal-layers / lookahead-slices=4 / no-splice / no-intra-refresh / no-ssim-rd / signhide / no-tskip / max-merge=4 / temporal-mvp / no-analyze-src-pics / no-sao-non-deblock / no-early-skip / rskip / no-fast-intra / no-tskip-fast / no-splitrd-skip / zone-count=0 / no-strict-cbr / no-rc-grain / no-const-vbv / sar=0 / overscan=0 / videoformat=5 / range=0 / colorprim=2 / transfer=2 / colormatrix=1 / chromaloc=0 / display-window=0cll=0,0 / min-luma=0 / max-luma=1023 / log2-max-poc-lsb=8 / vui-timing-info / vui-hrd-info / slices=1 / no-opt-qp-pps / no-opt-ref-list-length-pps / no-multi-pass-opt-rps / scenecut-bias=0.00 / no-opt-cu-delta-qp / no-aq-motion / no-hdr / no-hdr-opt / no-dhdr10-opt / no-idr-recovery-sei / analysis-reuse-level=5 / scale-factor=0 / refine-intra=0 / refine-inter=0 / refine-mv=0 / refine-ctu-distortion=0 / no-limit-sao / ctu-info=0 / no-lowpass-dct / refine-analysis-type=0 / copy-pic=1 / max-ausize-factor=1.0 / no-dynamic-refine / no-single-sei / no-hevc-aq / no-svt / no-field / qp-adaptation-range=1.00
Default : Yes
Forced : No
Color range : Limited
Matrix coefficients : BT.709

Audio #1
ID : 2
Format : DTS
Format/Info : Digital Theater Systems
Codec ID : A_DTS
Duration : 1 h 31 min
Bit rate mode : Constant
Bit rate : 768 kb/s
Channel(s) : 6 channels
Channel layout : C L R Ls Rs LFE
Sampling rate : 48.0 kHz
Frame rate : 93.750 FPS (512 SPF)
Bit depth : 16 bits
Compression mode : Lossy
Stream size : 500 MiB (10%)
Title : English (5.1) (DTS)
Language : English
Default : No
Forced : No

Audio #2
ID : 3
Format : AC-3
Format/Info : Audio Coding 3
Commercial name : Dolby Digital
Codec ID : A_AC3
Duration : 1 h 31 min
Bit rate mode : Constant
Bit rate : 640 kb/s
Channel(s) : 6 channels
Channel layout : L R C LFE Ls Rs
Sampling rate : 48.0 kHz
Frame rate : 31.250 FPS (1536 SPF)
Bit depth : 16 bits
Compression mode : Lossy
Stream size : 417 MiB (8%)
Title : English (5.1) (Dolbly Digital)
Language : English
Service kind : Complete Main
Default : Yes
Forced : Yes

Audio #3
ID : 4
Format : AAC LC
Format/Info : Advanced Audio Codec Low Complexity
Codec ID : A_AAC-2
Duration : 1 h 31 min
Bit rate : 157 kb/s
Channel(s) : 2 channels
Channel layout : L R
Sampling rate : 48.0 kHz
Frame rate : 46.875 FPS (1024 SPF)
Compression mode : Lossy
Delay relative to video : 20 ms
Stream size : 102 MiB (2%)
Title : English (Stereo) (AAC)
Language : English
Default : No
Forced : No

Text #1
ID : 5
Format : UTF-8
Codec ID : S_TEXT/UTF8
Codec ID/Info : UTF-8 Plain Text
Duration : 1 h 23 min
Bit rate : 24 b/s
Count of elements : 431
Stream size : 14.9 KiB (0%)
Language : English
Default : Yes
Forced : No

Text #2
ID : 6
Format : UTF-8
Codec ID : S_TEXT/UTF8
Codec ID/Info : UTF-8 Plain Text
Duration : 1 h 23 min
Bit rate : 47 b/s
Count of elements : 369
Stream size : 28.9 KiB (0%)
Title : Th-SRT
Language : Thai
Default : No
Forced : No

Text #3
ID : 7
Format : VobSub
Muxing mode : zlib
Codec ID : S_VOBSUB
Codec ID/Info : Picture based subtitle format used on DVDs
Duration : 1 h 23 min
Bit rate : 4 609 b/s
Count of elements : 369
Stream size : 2.76 MiB (0%)
Title : th-vob
Language : Thai
Default : No
Forced : No

Text #4
ID : 8
Format : PGS
Muxing mode : zlib
Codec ID : S_HDMV/PGS
Codec ID/Info : Picture based subtitle format used on BDs/HD-DVDs
Duration : 1 h 23 min
Bit rate : 16.7 kb/s
Count of elements : 738
Stream size : 10.00 MiB (0%)
Title : th-pgs
Language : Thai
Default : No
Forced : No

DOWNLOAD


PART01 |||| PART02 |||| PART03 |||| PART04 |||| PART05

PART01 |||| PART02 |||| PART03 |||| PART04 |||| PART05

PART01 |||| PART02 |||| PART03 |||| PART04 |||| PART05

PART01 |||| PART02 |||| PART03 |||| PART04 |||| PART05

PART01 |||| PART02 |||| PART03 |||| PART04 |||| PART05


Leave A Reply

Your email address will not be published.

%d bloggers like this: