[ฝรั่ง] 1917 (2019) [1080p] [พากย์อังกฤษ 2.0] [Soundtrack บรรยายไทย + อังกฤษ] [เสียงอังกฤษ + ซับไทย] [PANDAFILE]

0

โหลดหนัง 1917 (2019)

1917 (2019) 1h 59min | Drama, War | 16 January 2020 (Germany) Summary: April 6th, 1917. As a regiment assembles to wage war deep in enemy territory, two soldiers are assigned to race against time and deliver a message that will stop 1,600 men from walking straight into a deadly trap.
Countries: USA, UK, India, Spain, CanadaLanguages: English, French, German

เรื่องย่อ 1917 (2019)

แชม เมนเดส ผู้กำกับรางวัลออสการ์ที่เคยมีผลงานอย่าง Skyfall, Spectre และ American Beauty นำเสนอมุมมองที่แตกต่างในภาพยนตร์เกี่ยวกับสงครามโลก ครั้งที่ 1 ในภาพยนตร์ 1917 โดยได้ โรเจอร์ ดีกินส์ ผู้กำกับภาพเจ้าของรางวัลออสการ์ รับหน้าที่ผู้กำกับภาพ ภาพยนตร์ถ่ายทอดมุมมองของสงครามโดยใช้การเล่าเรื่องร าวแบบเรียลไทม์ เป็นภาพยนตร์เล่าเรื่องแบบช็อตเดียว ซึ่งจะทำให้ผู้ชมรู้สึกเสมือนอยู่ในสนามรบ ระหว่างสงครามโลกครั้งที่ 1 ทหารอังกฤษ ประกอบด้วย สคอฟิลด์ (จอร์จ แมคเคย์ จาก Captain Fantastic) และ เบลก (ดีน-ชาร์ลส์ แชปแมน จาก Game of Thrones) ได้รับมอบหมายให้ไปร่วมปฏิบัติการที่ดูเหมือนว่าอาจไ ม่มีทางสำเร็จ พวกเขาต้องข้ามเขตแดนของข้าศึก เพื่อส่งสารเพื่อให้หยุดการโจมตีทหารนับร้อย 1917 กำกับโดยแซม เมนเดส ที่เขียนบทร่วมกับคริสตี้ วิลสัน-แคร์น (จาก Showtime’s Penny Dreadful) ภาพยนตร์อำนวยการสร้างโดย แชม เมนเดส, พิปพา แฮร์ริส (ร่วมอำนวยการสร้าง Revolutionary Road บริหารงานสร้าง Away We Go) เจย์น-แอนน์ เทงเกรน (ร่วมอำนวยการสร้าง The Rhythm Sectionและ Skyfall), คัลลัม แมคดูกัล (บริหารงานสร้าง Mary Poppins Returns และ Skyfall), ไบรอัน โอลิเวอร์ (บริหารงานสร้าง Rocketman, Black Swan)!

Complete name : 1917.2019.1080p.WEB-DL.AAC.H.264.SubThai.One2loadup.com.mkv
Format : Matroska
Format version : Version 4
File size : 6.48 GiB
Duration : 1 h 58 min
Overall bit rate mode : Variable
Overall bit rate : 7 794 kb/s
Movie name : 1917.2019.1080p.WEB-DL.AAC.H.264.SubThai.One2loadup.com
Encoded date : UTC 2020-02-05 09:58:23
Writing application : mkvmerge v40.0.0 (‘Old Town Road + Pony’) 64-bit
Writing library : libebml v1.3.9 + libmatroska v1.5.2

Video
ID : 1
Format : AVC
Format/Info : Advanced Video Codec
Format profile : [email protected]
Format settings : CABAC / 1 Ref Frames
Format settings, CABAC : Yes
Format settings, ReFrames : 1 frame
Codec ID : V_MPEG4/ISO/AVC
Duration : 1 h 58 min
Bit rate mode : Variable
Bit rate : 7 491 kb/s
Maximum bit rate : 2 000 kb/s
Width : 1 920 pixels
Height : 804 pixels
Display aspect ratio : 2.40:1
Frame rate mode : Constant
Frame rate : 23.976 (24000/1001) FPS
Color space : YUV
Chroma subsampling : 4:2:0
Bit depth : 8 bits
Scan type : Progressive
Bits/(Pixel*Frame) : 0.202
Stream size : 6.22 GiB (96%)
Title : 1917.2019.1080p.WEB-DL.AAC.H.264.SubThai.One2loadup.com
Language : English
Default : Yes
Forced : No

Audio
ID : 2
Format : AAC LC
Format/Info : Advanced Audio Codec Low Complexity
Codec ID : A_AAC-2
Duration : 1 h 58 min
Bit rate : 165 kb/s
Channel(s) : 2 channels
Channel layout : L R
Sampling rate : 48.0 kHz
Frame rate : 46.875 FPS (1024 SPF)
Compression mode : Lossy
Delay relative to video : -427 ms
Stream size : 140 MiB (2%)
Title : English 2.0 @ 165 kb/s
Language : English
Default : Yes
Forced : No

Text #1
ID : 3
Format : PGS
Codec ID : S_HDMV/PGS
Codec ID/Info : Picture based subtitle format used on BDs/HD-DVDs
Duration : 1 h 49 min
Bit rate : 23.2 kb/s
Count of elements : 1664
Stream size : 18.2 MiB (0%)
Title : Thai PGS
Language : Thai
Default : No
Forced : No

Text #2
ID : 4
Format : VobSub
Codec ID : S_VOBSUB
Codec ID/Info : Picture based subtitle format used on DVDs
Duration : 1 h 49 min
Bit rate : 5 232 b/s
Count of elements : 832
Stream size : 4.10 MiB (0%)
Title : Thai 1080p
Language : Thai
Default : No
Forced : No

Text #3
ID : 5
Format : VobSub
Codec ID : S_VOBSUB
Codec ID/Info : Picture based subtitle format used on DVDs
Duration : 1 h 49 min
Bit rate : 2 801 b/s
Count of elements : 832
Stream size : 2.19 MiB (0%)
Title : Thai 720p
Language : Thai
Default : No
Forced : No

Text #4
ID : 6
Format : VobSub
Codec ID : S_VOBSUB
Codec ID/Info : Picture based subtitle format used on DVDs
Duration : 1 h 49 min
Bit rate : 1 483 b/s
Count of elements : 832
Stream size : 1.16 MiB (0%)
Title : Thai 480p
Language : Thai
Default : No
Forced : No

Text #5
ID : 7
Format : VobSub
Codec ID : S_VOBSUB
Codec ID/Info : Picture based subtitle format used on DVDs
Duration : 1 h 49 min
Bit rate : 5 236 b/s
Count of elements : 832
Stream size : 4.10 MiB (0%)
Title : Thai 1080p Yellow
Language : Thai
Default : No
Forced : No

Text #6
ID : 8
Format : PGS
Codec ID : S_HDMV/PGS
Codec ID/Info : Picture based subtitle format used on BDs/HD-DVDs
Duration : 1 h 49 min
Bit rate : 31.0 kb/s
Count of elements : 1664
Stream size : 24.3 MiB (0%)
Title : Thai PGS BIG
Language : Thai
Default : No
Forced : No

Text #7
ID : 9
Format : PGS
Codec ID : S_HDMV/PGS
Codec ID/Info : Picture based subtitle format used on BDs/HD-DVDs
Duration : 1 h 49 min
Bit rate : 23.2 kb/s
Count of elements : 1664
Stream size : 18.2 MiB (0%)
Title : Thai PGS Yellow
Language : Thai
Default : No
Forced : No

Text #8
ID : 10
Format : PGS
Codec ID : S_HDMV/PGS
Codec ID/Info : Picture based subtitle format used on BDs/HD-DVDs
Duration : 1 h 49 min
Bit rate : 20.5 kb/s
Count of elements : 1664
Stream size : 16.0 MiB (0%)
Title : Thai PGS Dillenia
Language : Thai
Default : No
Forced : No

Text #9
ID : 11
Format : PGS
Codec ID : S_HDMV/PGS
Codec ID/Info : Picture based subtitle format used on BDs/HD-DVDs
Duration : 1 h 49 min
Bit rate : 29.9 kb/s
Count of elements : 1664
Stream size : 23.4 MiB (0%)
Title : Thai PGS Sarabun
Language : Thai
Default : Yes
Forced : Yes

Text #10
ID : 12
Format : VobSub
Codec ID : S_VOBSUB
Codec ID/Info : Picture based subtitle format used on DVDs
Duration : 1 h 49 min
Bit rate : 5 149 b/s
Count of elements : 832
Stream size : 4.03 MiB (0%)
Title : Thai 1080p Sarabun
Language : Thai
Default : No
Forced : No

Text #11
ID : 13
Format : UTF-8
Codec ID : S_TEXT/UTF8
Codec ID/Info : UTF-8 Plain Text
Duration : 1 h 48 min
Bit rate : 33 b/s
Count of elements : 814
Stream size : 26.5 KiB (0%)
Title : English
Language : English
Default : No
Forced : No

Menu
00:00:00.000 : en:Chapter 1
00:13:36.983 : en:Chapter 2
00:23:39.585 : en:Chapter 3
00:30:48.013 : en:Chapter 4
00:40:53.618 : en:Chapter 5
00:54:49.453 : en:Chapter 6
01:02:16.900 : en:Chapter 7
01:12:02.485 : en:Chapter 8
01:23:04.605 : en:Chapter 9
01:32:23.705 : en:Chapter 10
01:41:43.264 : en:Chapter 11

DOWNLOAD


PART01 |||| PART02 |||| PART03 |||| PART04 |||| PART05 |||| PART06 |||| PART07

PART01 |||| PART02 |||| PART03 |||| PART04 |||| PART05 |||| PART06 |||| PART07

PART01 |||| PART02 |||| PART03 |||| PART04 |||| PART05 |||| PART06 |||| PART07

PART01 |||| PART02 |||| PART03 |||| PART04 |||| PART05 |||| PART06 |||| PART07

PART01 |||| PART02 |||| PART03 |||| PART04 |||| PART05 |||| PART06 |||| PART07


Leave A Reply

Your email address will not be published.

%d bloggers like this: