[ญี่ปุ่น] Weathering with You (2019) ฤดูฝัน ฉันมีเธอ [1080p] [พากย์ญี่ปุ่น 2.0] [Soundtrack บรรยายไทย + อังกฤษ] [เสียงญี่ปุ่น + ซับไทย] [PANDAFILE]

0

โหลดหนัง Weathering with You (2019) ฤดูฝัน ฉันมีเธอ

Weathering with You - Das Mädchen, das die Sonne berührte (2019) 1h 52min | Animation, Drama, Family | 16 January 2020 (Germany) Summary: A high-school boy who has run away to Tokyo befriends a girl who appears to be able to manipulate the weather.
Countries: JapanLanguages: Japanese, English

เรื่องย่อ Weathering with You (2019) ฤดูฝัน ฉันมีเธอ

Weathering with You จากผู้ให้กำเนิด “Your Name” ที่ครองหัวใจของคนทั้งโลก ‘มาโกโตะ ชินไค’ พร้อมกับเพลงประกอบจากวง J-Rock เจ้าเก่า RADWIMPS สู่ผลงานล่าสุดที่จะทำให้หัวใจของคุณชุ่มฉ่ำอีกครั้งใน “Weathering With You ฤดูฝัน ฉันมีเธอ” เมื่อเด็กหนุ่มมัธยมปลายจากเมืองเล็ก ๆ ในชนบท โฮดากะ โมริชิมะ (โคทาโร่ ไดโกะ) ได้ตัดสินใจออกเดินทางไปใช้ชีวิตในเมืองโตเกียวเพียง ลำพัง เขาก็ได้พบกับความผิดปกติบางอย่างในเมืองแห่งนี้ เนื่องด้วยเพราะการทำงานเป็นนักเขียนในนิตยสารรวมสิ่ งลึกลับ มันจึงทำให้เขาเริ่มสังเกตเห็นถึงสิ่งหนึ่งที่เกิดขึ้นบ่อยจนคนในเมืองคิดว่ามันเป็นเรื่องปกติและนั่นก็เป็นจุดเริ่มต้นที่ทำให้เขาได้พบกับ ฮินะ อามาโนะ (นานะ โมริ) สาวน้อยปริศนาที่มีความสามารถในการควบคุมสภาพอากาศและความลับที่จะเปลี่ยนโฉมหน้าของโลกใบนี้ไปตลอดกาล!!!

Complete name : Weathering.With.You.2019.1080p.WEB-DL.AAC.x264.Subthai.One2loadup.com.mkv
Format : Matroska
Format version : Version 4
File size : 4.65 GiB
Duration : 1 h 47 min
Overall bit rate : 6 193 kb/s
Movie name : Weathering.With.You.2019.1080p.WEB-DL.AAC.x264.Subthai.One2loadup.com
Encoded date : UTC 2020-05-06 08:03:28
Writing application : mkvmerge v40.0.0 (‘Old Town Road + Pony’) 64-bit
Writing library : libebml v1.3.9 + libmatroska v1.5.2

Video
ID : 1
Format : AVC
Format/Info : Advanced Video Codec
Format profile : [email protected]
Format settings : CABAC / 4 Ref Frames
Format settings, CABAC : Yes
Format settings, ReFrames : 4 frames
Codec ID : V_MPEG4/ISO/AVC
Duration : 1 h 47 min
Bit rate mode : Constant
Bit rate : 6 000 kb/s
Width : 1 920 pixels
Height : 1 080 pixels
Display aspect ratio : 16:9
Frame rate mode : Constant
Frame rate : 25.000 FPS
Standard : PAL
Color space : YUV
Chroma subsampling : 4:2:0
Bit depth : 8 bits
Scan type : Progressive
Bits/(Pixel*Frame) : 0.116
Stream size : 4.45 GiB (96%)
Title : Weathering.With.You.2019.1080p.WEB-DL.AAC.x264.Subthai.One2loadup.com
Language : Japanese
Default : Yes
Forced : Yes
Color range : Limited
Color primaries : BT.709
Transfer characteristics : BT.709
Matrix coefficients : BT.709

Audio
ID : 2
Format : AAC LC
Format/Info : Advanced Audio Codec Low Complexity
Codec ID : A_AAC-2
Duration : 1 h 47 min
Bit rate : 125 kb/s
Channel(s) : 2 channels
Channel layout : L R
Sampling rate : 48.0 kHz
Frame rate : 46.875 FPS (1024 SPF)
Compression mode : Lossy
Stream size : 96.5 MiB (2%)
Title : Japanese @ 125 kb/s
Language : Japanese
Default : Yes
Forced : No

Text #1
ID : 3
Format : PGS
Codec ID : S_HDMV/PGS
Codec ID/Info : Picture based subtitle format used on BDs/HD-DVDs
Duration : 1 h 41 min
Bit rate : 38.1 kb/s
Count of elements : 3016
Stream size : 27.6 MiB (1%)
Title : Thai DilleniaUPC PGS
Language : Thai
Default : No
Forced : No

Text #2
ID : 4
Format : PGS
Codec ID : S_HDMV/PGS
Codec ID/Info : Picture based subtitle format used on BDs/HD-DVDs
Duration : 1 h 41 min
Bit rate : 41.4 kb/s
Count of elements : 3016
Stream size : 30.0 MiB (1%)
Title : Thai PGS
Language : Thai
Default : No
Forced : No

Text #3
ID : 5
Format : PGS
Codec ID : S_HDMV/PGS
Codec ID/Info : Picture based subtitle format used on BDs/HD-DVDs
Duration : 1 h 41 min
Bit rate : 38.4 kb/s
Count of elements : 3016
Stream size : 27.8 MiB (1%)
Title : Thai Yellow PGS
Language : Thai
Default : No
Forced : No

Text #4
ID : 6
Format : VobSub
Codec ID : S_VOBSUB
Codec ID/Info : Picture based subtitle format used on DVDs
Duration : 1 h 41 min
Bit rate : 9 961 b/s
Count of elements : 1508
Stream size : 7.23 MiB (0%)
Title : Thai 1080p DilleniaUPC
Language : Thai
Default : No
Forced : No

Text #5
ID : 7
Format : VobSub
Codec ID : S_VOBSUB
Codec ID/Info : Picture based subtitle format used on DVDs
Duration : 1 h 41 min
Bit rate : 11.0 kb/s
Count of elements : 1508
Stream size : 8.00 MiB (0%)
Title : Thai 1080p
Language : Thai
Default : No
Forced : No

Text #6
ID : 8
Format : VobSub
Codec ID : S_VOBSUB
Codec ID/Info : Picture based subtitle format used on DVDs
Duration : 1 h 41 min
Bit rate : 5 597 b/s
Count of elements : 1508
Stream size : 4.06 MiB (0%)
Title : Thai 720p
Language : Thai
Default : No
Forced : No

Text #7
ID : 9
Format : VobSub
Codec ID : S_VOBSUB
Codec ID/Info : Picture based subtitle format used on DVDs
Duration : 1 h 41 min
Bit rate : 2 869 b/s
Count of elements : 1508
Stream size : 2.08 MiB (0%)
Title : Thai 480p
Language : Thai
Default : No
Forced : No

Text #8
ID : 10
Format : VobSub
Codec ID : S_VOBSUB
Codec ID/Info : Picture based subtitle format used on DVDs
Duration : 1 h 41 min
Bit rate : 10.7 kb/s
Count of elements : 1508
Stream size : 7.77 MiB (0%)
Title : Thai 1080p yellow
Language : Thai
Default : No
Forced : No

Text #9
ID : 11
Format : ASS
Codec ID : S_TEXT/ASS
Codec ID/Info : Advanced Sub Station Alpha
Duration : 1 h 47 min
Bit rate : 106 b/s
Count of elements : 1633
Compression mode : Lossless
Stream size : 83.6 KiB (0%)
Title : English
Language : English
Default : Yes
Forced : Yes

 

DOWNLOAD


PART01 |||| PART02 |||| PART03 |||| PART04 |||| PART05

PART01 |||| PART02 |||| PART03 |||| PART04 |||| PART05

PART01 |||| PART02 |||| PART03 |||| PART04 |||| PART05

PART01 |||| PART02 |||| PART03 |||| PART04 |||| PART05

PART01 |||| PART02 |||| PART03 |||| PART04 |||| PART05


Leave A Reply

Your email address will not be published.

%d bloggers like this: