[ญี่ปุ่น] Stand by Me Doraemon 2 (2020) โดราเอมอน เพื่อนกันตลอดไป ภาค 2 [1080p] [พากย์ไทยโรง 2.0 + เสียงญี่ปุ่น 2.0] [บรรยายอังกฤษ] [เสียงไทยโรง + ซับอังกฤษ] [PANDAFILE]

0

โหลดหนัง Stand by Me Doraemon 2 (2020) โดราเอมอน เพื่อนกันตลอดไป ภาค 2

Stand by Me Doraemon 2 (2020) 96min | Animation, Comedy, Drama | 20 November 2020 (Japan) Summary: One day Nobita Nobi found a old stuffed bear which his grandmother gave it to him. Nobita decided to go back in time to meet his grandmother. Grandma accepts Nobita's belief that he is a ... See full summary »
Countries: JapanLanguages: Japanese, English, French, Abkhazian, Hindi, Spanish, German, Urdu

เรื่องย่อ Stand by Me Doraemon 2 (2020) โดราเอมอน เพื่อนกันตลอดไป ภาค 2

เมื่อโนบิตะพบตุ๊กตาหมีตัวเก่าที่เขาเคยเล่นสมัยเด็ก อยู่ในห้องทำให้เขานึกถึงคุณย่าที่แสนใจดี พร้อมตัดสินใจชวนโดราเอมอนย้อนเวลากลับไปในอดีตเพื่อพบกับคุณย่าอีกครั้งจนเมื่อคุณย่าเอ่ยปากว่า “อยากจะพบกับเจ้าสาวของโนบิตะ” โดราเอมอนและโนบิตะจึงเดินทางไปในวันแต่งงานที่จะเกิดขึ้นในอนาคต ก่อนจะพบว่าโนบิตะในวัยผู้ใหญ่ได้หนีหายออกจากงานแต่งงานของเขากับชิซึกะไป โนบิตะและโดราเอมอนจึงต้องช่วยกันตามหาเพื่อทำให้ความฝันของคุณย่าเป็นจริง

Complete name : Stand.by.Me.Doraemon.2.2020.1080p.BluRay.AC3.x264.THR.One2loadup.com.mkv
Format : Matroska
Format version : Version 4
File size : 3.96 GiB
Duration : 1 h 35 min
Overall bit rate : 5 923 kb/s
Movie name : Stand.by.Me.Doraemon.2.2020.1080p.BluRay.AC3.x264.THR.One2loadup.com
Encoded date : UTC 2021-04-18 03:56:06
Writing application : mkvmerge v43.0.0 (‘The Quartermaster’) 64-bit
Writing library : libebml v1.3.10 + libmatroska v1.5.2

Video
ID : 1
Format : AVC
Format/Info : Advanced Video Codec
Format profile : [email protected]
Format settings : CABAC / 5 Ref Frames
Format settings, CABAC : Yes
Format settings, Reference : 5 frames
Codec ID : V_MPEG4/ISO/AVC
Duration : 1 h 35 min
Bit rate : 5 300 kb/s
Width : 1 920 pixels
Height : 1 080 pixels
Display aspect ratio : 16:9
Frame rate mode : Constant
Frame rate : 23.976 (24000/1001) FPS
Color space : YUV
Chroma subsampling : 4:2:0
Bit depth : 8 bits
Scan type : Progressive
Bits/(Pixel*Frame) : 0.107
Stream size : 3.53 GiB (89%)
Title : Stand.by.Me.Doraemon.2.2020.1080p.BluRay.AC3.x264.THR.One2loadup.com
Writing library : x264 core 148 r2762 90a61ec
Encoding settings : opencl=1 / cabac=1 / ref=5 / deblock=1:1:1 / analyse=0x3:0x133 / me=tesa / subme=11 / psy=1 / psy_rd=0.40:0.00 / mixed_ref=1 / me_range=24 / chroma_me=1 / trellis=2 / 8x8dct=1 / cqm=0 / deadzone=21,11 / fast_pskip=0 / chroma_qp_offset=-2 / threads=12 / lookahead_threads=1 / sliced_threads=0 / nr=0 / decimate=1 / interlaced=0 / bluray_compat=0 / constrained_intra=0 / bframes=5 / b_pyramid=2 / b_adapt=2 / b_bias=0 / direct=3 / weightb=1 / open_gop=0 / weightp=2 / keyint=250 / keyint_min=23 / scenecut=40 / intra_refresh=0 / rc_lookahead=48 / rc=abr / mbtree=1 / bitrate=5300 / ratetol=1.0 / qcomp=0.60 / qpmin=0 / qpmax=69 / qpstep=4 / ip_ratio=1.40 / aq=1:0.00
Language : Japanese
Default : Yes
Forced : No

Audio #1
ID : 2
Format : AC-3
Format/Info : Audio Coding 3
Commercial name : Dolby Digital
Codec ID : A_AC3
Duration : 1 h 35 min
Bit rate mode : Constant
Bit rate : 192 kb/s
Channel(s) : 2 channels
Channel layout : L R
Sampling rate : 48.0 kHz
Frame rate : 31.250 FPS (1536 SPF)
Compression mode : Lossy
Stream size : 132 MiB (3%)
Title : THR
Language : Thai
Service kind : Complete Main
Default : No
Forced : No

Audio #2
ID : 3
Format : AC-3
Format/Info : Audio Coding 3
Commercial name : Dolby Digital
Codec ID : A_AC3
Duration : 1 h 35 min
Bit rate mode : Constant
Bit rate : 448 kb/s
Channel(s) : 2 channels
Channel layout : L R
Sampling rate : 44.1 kHz
Frame rate : 28.711 FPS (1536 SPF)
Compression mode : Lossy
Stream size : 307 MiB (8%)
Language : Japanese
Service kind : Complete Main
Default : Yes
Forced : No

Text
ID : 4
Format : UTF-8
Codec ID : S_TEXT/UTF8
Codec ID/Info : UTF-8 Plain Text
Duration : 1 h 34 min
Bit rate : 51 b/s
Count of elements : 1169
Stream size : 35.8 KiB (0%)
Language : English
Default : Yes
Forced : No

DOWNLOAD


PART01 |||| PART02 |||| PART03 |||| PART04 |||| PART05

PART01 |||| PART02 |||| PART03 |||| PART04 |||| PART05

PART01 |||| PART02 |||| PART03 |||| PART04 |||| PART05

PART01 |||| PART02 |||| PART03 |||| PART04 |||| PART05

PART01 |||| PART02 |||| PART03 |||| PART04 |||| PART05


Leave A Reply

Your email address will not be published.

%d bloggers like this: