[ญี่ปุ่น] Howling Village (2019) อุโมงค์ผีดุ [1080p] [พากย์ไทยโรง 2.0 + เสียงญี่ปุ่น 2.0] [บรรยายจีนฝัง] [เสียงไทยโรง + ซับจีนฝัง] [PANDAFILE]

0

โหลดหนัง Howling Village (2019) อุโมงค์ผีดุ

Howling Village (2019) 108min | Horror | 7 February 2020 (Japan) Summary: A young psychologist heads to an infamous haunted place named 'Howling Village' in order to find out her family's dark history.
Countries: JapanLanguages: Japanese

เรื่องย่อ Howling Village (2019) อุโมงค์ผีดุ

เรื่องราวที่แปลกประหลาดที่ได้เกิดขึ้นกับนักจิตวิทย าสาว โมริตะ คานาเอะ (อายากะ มิโยชิ) เริ่มด้วยมีหญิงสาวร้องเพลงเด็ก และพี่น้องที่ได้สูญหายที่กลายเป็นปริศนาการตายต่อเน ื่องที่ซ่อนเงื่อนงำเอาไว้ เธอจึงได้คิดว่าทุกคนมีส่วนเกี่ยวข้องกับอุโมงค์อินุ นากิที่ได้ถูกสาป และเธอต้องเริ่มตามหาความจริง

Complete name : Howling.Village.2019.1080P.WEBRip.AAC.x264.THR.One2loadup.com.mkv
Format : Matroska
Format version : Version 4
File size : 5.62 GiB
Duration : 1 h 48 min
Overall bit rate : 7 421 kb/s
Movie name : Howling.Village.2019.1080P.WEBRip.AAC.x264.THR.One2loadup.com
Encoded date : UTC 2021-04-16 22:45:30
Writing application : mkvmerge v50.0.0 (‘Awakenings’) 64-bit
Writing library : libebml v1.4.0 + libmatroska v1.6.2

Video
ID : 1
Format : AVC
Format/Info : Advanced Video Codec
Format profile : [email protected]
Format settings : CABAC / 4 Ref Frames
Format settings, CABAC : Yes
Format settings, Reference : 4 frames
Codec ID : V_MPEG4/ISO/AVC
Duration : 1 h 48 min
Bit rate : 6 943 kb/s
Width : 1 920 pixels
Height : 1 080 pixels
Display aspect ratio : 16:9
Frame rate mode : Constant
Frame rate : 23.976 (24000/1001) FPS
Color space : YUV
Chroma subsampling : 4:2:0
Bit depth : 8 bits
Scan type : Progressive
Bits/(Pixel*Frame) : 0.140
Stream size : 5.26 GiB (94%)
Title : Howling.Village.2019.1080P.WEBRip.AAC.x264.THR.One2loadup.com
Default : Yes
Forced : No

Audio #1
ID : 2
Format : AAC LC
Format/Info : Advanced Audio Codec Low Complexity
Codec ID : A_AAC-2
Duration : 1 h 48 min
Bit rate : 384 kb/s
Channel(s) : 2 channels
Channel layout : L R
Sampling rate : 48.0 kHz
Frame rate : 46.875 FPS (1024 SPF)
Compression mode : Lossy
Delay relative to video : 42 ms
Stream size : 294 MiB (5%)
Language : Japanese
Default : Yes
Forced : No

Audio #2
ID : 3
Format : AAC LC
Format/Info : Advanced Audio Codec Low Complexity
Codec ID : A_AAC-2
Duration : 1 h 48 min
Bit rate : 96.0 kb/s
Channel(s) : 2 channels
Channel layout : L R
Sampling rate : 48.0 kHz
Frame rate : 46.875 FPS (1024 SPF)
Compression mode : Lossy
Stream size : 74.4 MiB (1%)
Title : THR ไทยโรง
Language : Thai
Default : No
Forced : No

DOWNLOAD


PART01 |||| PART02 |||| PART03 |||| PART04 |||| PART05 |||| PART06

PART01 |||| PART02 |||| PART03 |||| PART04 |||| PART05 |||| PART06

PART01 |||| PART02 |||| PART03 |||| PART04 |||| PART05 |||| PART06

PART01 |||| PART02 |||| PART03 |||| PART04 |||| PART05 |||| PART06

PART01 |||| PART02 |||| PART03 |||| PART04 |||| PART05 |||| PART06


Leave A Reply

Your email address will not be published.

%d bloggers like this: