[ญี่ปุ่น] Demon Slayer: Kimetsu no Yaiba the Movie: Mugen Train (2020) ดาบพิฆาตอสูร เดอะมูฟวี่ : ศึกรถไฟสู่นิรันดร์ [1080p] [พากย์ไทยโรง 2.0 + เสียงญี่ปุ่น 2.0] [บรรยายจีนฝัง] [เสียงไทยโรง + ซับจีนฝัง] [DOSYAUPLOAD]

0

โหลดหนัง Demon Slayer: Kimetsu no Yaiba the Movie: Mugen Train (2020) ดาบพิฆาตอสูร เดอะมูฟวี่ : ศึกรถไฟสู่นิรันดร์

Demon Slayer the Movie: Mugen Train (2020) 1h 57min | Animation, Action, Adventure | 2021 (USA) Summary: Tanjiro Kamado, joined with Inosuke Hashibira, a boy raised by boars who wears a boar's head, and Zenitsu Agatsuma, a scared boy who reveals his true power when he sleeps, board the ... See full summary »
Countries: JapanLanguages: Japanese

เรื่องย่อ Demon Slayer: Kimetsu no Yaiba the Movie: Mugen Train (2020) ดาบพิฆาตอสูร เดอะมูฟวี่ : ศึกรถไฟสู่นิรันดร์

Kimetsu No Yaiba : Mugen Ressha-Hen เรื่องราวที่ต่อเนื่องทันทีจากฉบับอนิเมะซีรีส์ เมื่อก๊วนเพื่อนของทั้งทันจิโร่ และเนซึโกะ ได้รับภารกิจให้ไปสืบสวนหาสาเหตุการหายตัวไปของผู้คนบนขบวนรถไฟสู่นิรันดร์ พวกเขาจึงได้รู้ว่าบนขบวนรถไฟลำนี้มีอสูรทรงพลังซ่อนตัวอยู่ แต่คราวนี้พวกเขาก็ไม่จำเป็นต้องต่อสู้กันตามลำพัง เพราะเสาหลักแห่งไฟ เรนโงคุ ได้เข้าร่วมศึกด้วย นี่จึงกลายเป็นการต่อสู้เพื่อช่วยเหลือผู้คนบริสุทธิ์บนขบวนรถไฟแห่งฝันร้าย ที่จะนำไปสู่เรื่องราวที่แฟน ๆ ฉบับมังงะยกย่องให้เป็นอีกหนึ่งเรื่องราวที่สนุกที่สุดของซีรีส์อนิเมะชุดนี้ ใครที่กำลังรอภาพยนตร์เรื่องนี้อยู่ก็อดใจรอกันอีกไม่นาน แล้วพบกันในโรงภาพยนตร์!

Complete name : Demon.Slayer.the.Movie.Mugen.Train.2020.1080p.HDCAM.CHINESE-SUB.x264.THR.One2loadup.com.mkv
Format : Matroska
Format version : Version 4
File size : 4.12 GiB
Duration : 1 h 56 min
Overall bit rate mode : Variable
Overall bit rate : 5 059 kb/s
Movie name : Demon.Slayer.the.Movie.Mugen.Train.2020.1080p.HDCAM.CHINESE-SUB.x264.THR.One2loadup.com
Encoded date : UTC 2020-12-21 08:08:49
Writing application : mkvmerge v51.0.0 (‘I Wish’) 64-bit
Writing library : libebml v1.4.0 + libmatroska v1.6.2

Video
ID : 1
Format : AVC
Format/Info : Advanced Video Codec
Format profile : [email protected]
Format settings : CABAC / 1 Ref Frames
Format settings, CABAC : Yes
Format settings, ReFrames : 1 frame
Codec ID : V_MPEG4/ISO/AVC
Duration : 1 h 56 min
Bit rate mode : Variable
Bit rate : 4 512 kb/s
Maximum bit rate : 13.5 Mb/s
Width : 1 920 pixels
Height : 1 080 pixels
Display aspect ratio : 1.85:1
Frame rate mode : Constant
Frame rate : 29.970 (30000/1001) FPS
Color space : YUV
Chroma subsampling : 4:2:0
Bit depth : 8 bits
Scan type : Progressive
Bits/(Pixel*Frame) : 0.073
Stream size : 3.68 GiB (89%)
Title : Demon.Slayer.the.Movie.Mugen.Train.2020.1080p.HDCAM.CHINESE-SUB.x264.THR.One2loadup.com
Language : Chinese
Default : Yes
Forced : No

Audio #1
ID : 2
Format : AC-3
Format/Info : Audio Coding 3
Commercial name : Dolby Digital
Codec ID : A_AC3
Duration : 1 h 56 min
Bit rate mode : Constant
Bit rate : 384 kb/s
Channel(s) : 2 channels
Channel layout : L R
Sampling rate : 48.0 kHz
Frame rate : 31.250 FPS (1536 SPF)
Bit depth : 16 bits
Compression mode : Lossy
Stream size : 321 MiB (8%)
Title : ThaiRong 2.0 @ 384 kb/s
Language : Thai
Service kind : Complete Main
Default : No
Forced : Yes

Audio #2
ID : 3
Format : AAC LC
Format/Info : Advanced Audio Codec Low Complexity
Codec ID : A_AAC-2
Duration : 1 h 56 min
Bit rate : 160 kb/s
Channel(s) : 2 channels
Channel layout : L R
Sampling rate : 48.0 kHz
Frame rate : 46.875 FPS (1024 SPF)
Compression mode : Lossy
Stream size : 134 MiB (3%)
Title : Japanese 2.0 @ 160 kb/s
Language : Japanese
Default : Yes
Forced : No

DOWNLOAD


PART01 |||| PART02 |||| PART03 |||| PART04 |||| PART05

PART01 |||| PART02 |||| PART03 |||| PART04 |||| PART05

PART01 |||| PART02 |||| PART03 |||| PART04 |||| PART05

PART01 |||| PART02 |||| PART03 |||| PART04 |||| PART05

PART01 |||| PART02 |||| PART03 |||| PART04 |||| PART05



แจ้งหนังเสีย หรือโหลดไม่ได้ ทั้งลิ้งฟรีและ vip สามารถกดที่รูปด้านบนนี้ได้เลย

: Disable Comments
%d bloggers like this: