[จีน] The Third Way of Love (2015) [1080p] [พากย์ไทย + เสียงจีน] [บรรยายไทย + จีน + อังกฤษ] [Modified] [เสียงไทย + ซับไทย + ซับจีนฝัง + อังกฤษฝัง ] [PANDAFILE]

2

โหลดหนัง  The Third Way of Love (2015)

Di san zhong ai qing | September 25, 2015 (China) Summary:
Countries: ChinaLanguages: Mandarin

เรื่องย่อ The Third Way of Love (2015)

เรื่องราวรักดราม่านี้มีจุดเริ่มต้นมาจาก เมื่อชายคนหนึ่งที่ยื่นกระดาษทิชชู่ให้หญิงสาวที่นั่งร้องไห้อยู่ข้างเขา ณ วันหนึ่ง โจวยวี่ ทนายความสาวสวยมาที่บริษัทของน้องสาวเพื่อที่จะให้ลาออกจากงาน เหตุเพราะ เสี่ยวเยว่ น้องสาวของเธอ ตกหลุมรัก หลินฉีเจิ้ง ผู้บริหารรูปหล่อและเป็นทายาทตระกูลมหาเศรษฐีเสี่ยวเยว่หลงรักเขามาก แถมเป็นรักข้างเดียวที่ไม่สมหวัง ทำให้เธอพยายามฆ่าตัวตาย แต่ในที่สุด โชคชะตาก็เหมือนเล่นตลกให้ โจวยวี่ กลับมาหลงรัก หลินฉีเจิ้ง แทนซะเอง นับตั้งแต่พวกเขาได้พบกัน และทั้งคู่ได้มาทำงานร่วมกันโดยที่ โจวยวี่ ต้องมาทำงานเป็นที่ปรึกษาทางกฏหมายให้ หลินฉีเจิ้ง ส่วน เสี่ยวเยว่ น้องสาวพอมารู้เรื่องราวความรักของพี่สาวและชายที่เธอรักเธอรู้สึกเหมือนโดนทรยศ จนฆ่าตัวตาย และนั่นคือจุดเริ่มต้นของโศกนาฏกรรมของความรักครั้งนี้

Complete name : The.Third.Way.of.Love.2015.1080p.WEB-DL.x264.One2loadup.com.mkv
Format : Matroska
Format version : Version 4
File size : 3.12 GiB
Duration : 1 h 53 min
Overall bit rate : 3 934 kb/s
Movie name : The.Third.Way.of.Love.2015.1080p.WEB-DL.x264.One2loadup.com
Encoded date : UTC 2010-02-22 21:41:31
Writing application : mkvmerge v5.9.0 (‘On The Loose’) built on Dec 9 2012 15:37:01
Writing library : libebml v1.3.0 + libmatroska v1.4.0

Video
ID : 1
Format : AVC
Format/Info : Advanced Video Codec
Format profile : [email protected]
Format settings : CABAC / 3 Ref Frames
Format settings, CABAC : Yes
Format settings, ReFrames : 3 frames
Codec ID : V_MPEG4/ISO/AVC
Duration : 1 h 53 min
Bit rate : 2 063 kb/s
Width : 1 920 pixels
Height : 808 pixels
Display aspect ratio : 2.40:1
Frame rate mode : Constant
Frame rate : 24.000 FPS
Color space : YUV
Chroma subsampling : 4:2:0
Bit depth : 8 bits
Scan type : Progressive
Bits/(Pixel*Frame) : 0.055
Stream size : 1.64 GiB (52%)
Language : Chinese
Default : Yes
Forced : No

Audio #1
ID : 2
Format : AC-3
Format/Info : Audio Coding 3
Commercial name : Dolby Digital
Codec ID : A_AC3
Duration : 1 h 53 min
Bit rate mode : Constant
Bit rate : 448 kb/s
Channel(s) : 6 channels
Channel layout : L R C LFE Ls Rs
Sampling rate : 48.0 kHz
Frame rate : 31.250 FPS (1536 SPF)
Bit depth : 16 bits
Compression mode : Lossy
Stream size : 364 MiB (11%)
Language : Chinese
Service kind : Complete Main
Default : Yes
Forced : Yes

Audio #2
ID : 3
Format : AC-3
Format/Info : Audio Coding 3
Commercial name : Dolby Digital
Codec ID : A_AC3
Duration : 1 h 53 min
Bit rate mode : Constant
Bit rate : 448 kb/s
Channel(s) : 6 channels
Channel layout : L R C LFE Ls Rs
Sampling rate : 48.0 kHz
Frame rate : 31.250 FPS (1536 SPF)
Bit depth : 16 bits
Compression mode : Lossy
Stream size : 364 MiB (11%)
Language : Thai
Service kind : Complete Main
Default : No
Forced : No

Audio #3
ID : 4
Format : AC-3
Format/Info : Audio Coding 3
Commercial name : Dolby Digital
Codec ID : A_AC3
Duration : 1 h 53 min
Bit rate mode : Constant
Bit rate : 448 kb/s
Channel(s) : 6 channels
Channel layout : L R C LFE Ls Rs
Sampling rate : 48.0 kHz
Frame rate : 31.250 FPS (1536 SPF)
Bit depth : 16 bits
Compression mode : Lossy
Stream size : 364 MiB (11%)
Language : Chinese
Service kind : Complete Main
Default : No
Forced : No

Audio #4
ID : 5
Format : AC-3
Format/Info : Audio Coding 3
Commercial name : Dolby Digital
Codec ID : A_AC3
Duration : 1 h 53 min
Bit rate mode : Constant
Bit rate : 448 kb/s
Channel(s) : 6 channels
Channel layout : L R C LFE Ls Rs
Sampling rate : 48.0 kHz
Frame rate : 31.250 FPS (1536 SPF)
Bit depth : 16 bits
Compression mode : Lossy
Stream size : 364 MiB (11%)
Language : Thai
Service kind : Complete Main
Default : No
Forced : No

Text #1
ID : 6
Format : VobSub
Codec ID : S_VOBSUB
Codec ID/Info : Picture based subtitle format used on DVDs
Language : Thai
Default : Yes
Forced : Yes

Text #2
ID : 7
Format : VobSub
Codec ID : S_VOBSUB
Codec ID/Info : Picture based subtitle format used on DVDs
Language : Thai
Default : No
Forced : No

Text #3
ID : 8
Format : PGS
Codec ID : S_HDMV/PGS
Codec ID/Info : Picture based subtitle format used on BDs/HD-DVDs
Language : Thai
Default : No
Forced : No

Text #4
ID : 9
Format : PGS
Codec ID : S_HDMV/PGS
Codec ID/Info : Picture based subtitle format used on BDs/HD-DVDs
Language : Thai
Default : No
Forced : No

DOWNLOAD


PART01 |||| PART02 |||| PART03

PART01 |||| PART02 |||| PART03

PART01 |||| PART02 |||| PART03

PART01 |||| PART02 |||| PART03


2 Comments
  1. ha says

    ลิงค์เสียหมดแล้ว ช่วยอัพใหม่ได้มั้ยครับ ขอบคุณครับ

    1. Admin
      Admin says

      แก้ไขเรียบร้อยฮ๊ะ

Leave A Reply

อีเมล์ของคุณจะไม่แสดงให้เห็น Your email address will not be published.

%d bloggers like this: