[จีน] The Rookies (2019) ทีมเฟี้ยวตัดเหลี่ยมคน [1080p] [พากย์ไทย 2.0 + เสียงจีน 2.0] [บรรยายจีนฝัง + อังกฤษฝัง] [เสียงไทย + ซับจีนฝัง] [PANDAFILE]

0

โหลดหนัง The Rookies (2019) ทีมเฟี้ยวตัดเหลี่ยมคน

Su ren te gong (2019) 1h 53min | Action | 12 July 2019 (China) Summary: Extreme sport lover Zhou Feng got involved in an international illegal trade by accident. So he had to follow an international special agent Bruce to Budapest. Together with a crappy police... See full summary »
Countries: China, HungaryLanguages: English, Mandarin

เรื่องย่อ The Rookies (2019) ทีมเฟี้ยวตัดเหลี่ยมคน

เนื่องด้วยคนรักกีฬาเอ็กซ์ตรีมที่มีนามว่า โจวเฟิง ดันไปมีส่วนเกี่ยวข้องกับการค้าขายผิดกฎหมายโดยไม่ได้ตั้งใจ ดังนั้นเขาจึงต้องตั้งทีมติดต่อตัวแทนพิเศษระหว่างประเทศ บรูซ ไปที่บูดาเปสต์ เพื่อร่วมกับเจ้าหน้าที่ตำรวจเส็งเคร็งชื่อว่า Miao Yan กับนักวิทยาศาสตร์ที่ไม่ใช่มืออาชีพ Ding Shan และ แพทย์ที่ว่างงานชื่อ LV พวกเขา 4 คนนี้จึงกลายเป็นทีมหน่วยสมัครเล่น ทีมหน้าใหม่ทั้งสี่เริ่มต่อสู้กับผู้ก่อการร้ายที่ทั้งตื่นเต้นและโหดมันฮา

Complete name : The.Rookies.2019.1080p.WEB-DL.AC3.x264.One2loadup.com.mkv
Format : Matroska
Format version : Version 4
File size : 3.21 GiB
Duration : 1 h 52 min
Overall bit rate mode : Constant
Overall bit rate : 4 076 kb/s
Movie name : The.Rookies.2019.1080p.WEB-DL.AC3.x264.One2loadup.com
Encoded date : UTC 2020-01-28 16:47:52
Writing application : mkvmerge v43.0.0 (‘The Quartermaster’) 64-bit
Writing library : libebml v1.3.10 + libmatroska v1.5.2
Cover : Yes
Attachments : cover.jpg

Video
ID : 1
Format : AVC
Format/Info : Advanced Video Codec
Format profile : [email protected]
Format settings : CABAC / 1 Ref Frames
Format settings, CABAC : Yes
Format settings, ReFrames : 1 frame
Format settings, GOP : M=1, N=25
Codec ID : V_MPEG4/ISO/AVC
Duration : 1 h 52 min
Bit rate mode : Constant
Bit rate : 3 500 kb/s
Width : 1 920 pixels
Height : 800 pixels
Display aspect ratio : 2.40:1
Frame rate mode : Constant
Frame rate : 29.970 (30000/1001) FPS
Color space : YUV
Chroma subsampling : 4:2:0
Bit depth : 8 bits
Scan type : Progressive
Bits/(Pixel*Frame) : 0.076
Stream size : 2.76 GiB (86%)
Title : The.Rookies.2019.1080p.WEB-DL.AC3.x264.One2loadup.com
Language : Chinese
Default : Yes
Forced : No

Audio #1
ID : 2
Format : AC-3
Format/Info : Audio Coding 3
Commercial name : Dolby Digital
Codec ID : A_AC3
Duration : 1 h 52 min
Bit rate mode : Constant
Bit rate : 320 kb/s
Channel(s) : 2 channels
Channel layout : L R
Sampling rate : 44.1 kHz
Frame rate : 28.711 FPS (1536 SPF)
Bit depth : 16 bits
Compression mode : Lossy
Stream size : 258 MiB (8%)
Title : 2.0 AC3 TH
Language : Thai
Service kind : Complete Main
Default : Yes
Forced : No

Audio #2
ID : 3
Format : AC-3
Format/Info : Audio Coding 3
Commercial name : Dolby Digital
Codec ID : A_AC3
Duration : 1 h 52 min
Bit rate mode : Constant
Bit rate : 256 kb/s
Channel(s) : 2 channels
Channel layout : L R
Sampling rate : 44.1 kHz
Frame rate : 28.711 FPS (1536 SPF)
Bit depth : 16 bits
Compression mode : Lossy
Stream size : 207 MiB (6%)
Title : 2.0 AC3 Chinese
Language : Chinese
Service kind : Complete Main
Default : No
Forced : No

DOWNLOAD


PART01 |||| PART02 |||| PART03 |||| PART04

PART01 |||| PART02 |||| PART03 |||| PART04

PART01 |||| PART02 |||| PART03 |||| PART04

PART01 |||| PART02 |||| PART03 |||| PART04

PART01 |||| PART02 |||| PART03 |||| PART04


Leave A Reply

Your email address will not be published.

%d bloggers like this: