[จีน] Taoist Master (2020) นักพรตจางแห่งหุบเขามังกรพยัคฆ์ [1080p] [พากย์จีน 5.1] [Soundtrack บรรยายไทย + อังกฤษ] [เสียงจีน + ซับไทย] [USERLOAD]

0

โหลดหนัง Taoist Master (2020) นักพรตจางแห่งหุบเขามังกรพยัคฆ์

Taoist Master 91min | Action | June 5, 2020 (China) Summary: A land filled with poisonous magic, a sorcerer hoodwinked the public and the Taoist Master involved in a shocking conspiracy. Is it true that no one can really overcome their desire?
Countries: ChinaLanguages: Mandarin

เรื่องย่อ CHIPs (2017) ชิปส์
Zhang Daoling received a letter of help from his friend Wen, an adult, and took his disciple Wang Chang to Bashu. However, he found his friend was dead and was involved in a terrifying conspiracy. Zhang Daoling insisted on his own heart and was not fooled by foreign objects. Eventually, he stopped the evil sacrificial activities of the local evil organizations to ruin the people and educated the local people.

Complete name : Taoist.Master.2020.1080p.WEB-DL.AAC.x264.Subthai.One2loadup.com.mkv
Format : Matroska
Format version : Version 4
File size : 5.31 GiB
Duration : 1 h 31 min
Overall bit rate : 8 294 kb/s
Movie name : Taoist.Master.2020.1080p.WEB-DL.AAC.x264.Subthai.One2loadup.com
Encoded date : UTC 2021-07-19 12:18:27
Writing application : mkvmerge v8.1.0 (‘Psychedelic Postcard’) 32bit
Writing library : libebml v1.3.1 + libmatroska v1.4.2 / Lavf58.20.100
SUMMARY : FLTTH (Fu Li To The Home)

Video
ID : 1
Format : AVC
Format/Info : Advanced Video Codec
Format profile : [email protected]
Format settings : CABAC / 4 Ref Frames
Format settings, CABAC : Yes
Format settings, Reference : 4 frames
Codec ID : V_MPEG4/ISO/AVC
Duration : 1 h 31 min
Bit rate : 8 117 kb/s
Width : 1 920 pixels
Height : 816 pixels
Display aspect ratio : 2.35:1
Frame rate mode : Constant
Frame rate : 25.000 FPS
Color space : YUV
Chroma subsampling : 4:2:0
Bit depth : 8 bits
Scan type : Progressive
Bits/(Pixel*Frame) : 0.207
Stream size : 5.20 GiB (98%)
Title : Taoist.Master.2020.1080p.WEB-DL.AAC.x264.Subthai.One2loadup.com
Writing library : x264 core 157 r2935 545de2f
Encoding settings : cabac=1 / ref=3 / deblock=1:0:0 / analyse=0x1:0x111 / me=hex / subme=7 / psy=1 / psy_rd=1.00:0.00 / mixed_ref=1 / me_range=16 / chroma_me=1 / trellis=1 / 8x8dct=0 / cqm=0 / deadzone=21,11 / fast_pskip=1 / chroma_qp_offset=-2 / threads=6 / lookahead_threads=1 / sliced_threads=0 / nr=0 / decimate=1 / interlaced=0 / bluray_compat=0 / constrained_intra=0 / bframes=3 / b_pyramid=2 / b_adapt=1 / b_bias=0 / direct=1 / weightb=1 / open_gop=0 / weightp=2 / keyint=250 / keyint_min=25 / scenecut=40 / intra_refresh=0 / rc_lookahead=40 / rc=crf / mbtree=1 / crf=14.0 / qcomp=0.60 / qpmin=0 / qpmax=69 / qpstep=4 / vbv_maxrate=20000 / vbv_bufsize=25000 / crf_max=0.0 / nal_hrd=none / filler=0 / ip_ratio=1.40 / aq=1:1.00
Language : Chinese
Default : Yes
Forced : No
Color range : Limited
Color primaries : BT.709
Transfer characteristics : BT.709
Matrix coefficients : BT.709

Audio
ID : 2
Format : AAC LC
Format/Info : Advanced Audio Codec Low Complexity
Codec ID : A_AAC-2
Duration : 1 h 31 min
Bit rate : 161 kb/s
Channel(s) : 2 channels
Channel layout : L R
Sampling rate : 44.1 kHz
Frame rate : 43.066 FPS (1024 SPF)
Compression mode : Lossy
Delay relative to video : -23 ms
Stream size : 106 MiB (2%)
Title : Mandarin : 2.0
Language : Chinese
Default : Yes
Forced : No

Text #1
ID : 3
Format : PGS
Muxing mode : zlib
Codec ID : S_HDMV/PGS
Codec ID/Info : Picture based subtitle format used on BDs/HD-DVDs
Duration : 1 h 28 min
Bit rate : 12.6 kb/s
Count of elements : 2262
Stream size : 8.01 MiB (0%)
Title : Thai PGS Yellow (CrazyMovie)
Language : Thai
Default : Yes
Forced : No

Text #2
ID : 4
Format : ASS
Codec ID : S_TEXT/ASS
Codec ID/Info : Advanced Sub Station Alpha
Duration : 1 h 28 min
Bit rate : 146 b/s
Count of elements : 1131
Compression mode : Lossless
Stream size : 95.1 KiB (0%)
Title : Thai SSA
Language : Thai
Default : No
Forced : No

Text #3
ID : 5
Format : ASS
Codec ID : S_TEXT/ASS
Codec ID/Info : Advanced Sub Station Alpha
Duration : 1 h 27 min
Bit rate : 72 b/s
Count of elements : 1218
Compression mode : Lossless
Stream size : 46.5 KiB (0%)
Title : Simplified Chinese (簡體中文)
Language : Chinese
Default : No
Forced : No

Text #4
ID : 6
Format : ASS
Codec ID : S_TEXT/ASS
Codec ID/Info : Advanced Sub Station Alpha
Duration : 1 h 27 min
Bit rate : 72 b/s
Count of elements : 1218
Compression mode : Lossless
Stream size : 46.5 KiB (0%)
Title : Simplified Chinese (簡體中文)
Language : Chinese
Default : No
Forced : No

Text #5
ID : 7
Format : ASS
Codec ID : S_TEXT/ASS
Codec ID/Info : Advanced Sub Station Alpha
Duration : 1 h 28 min
Bit rate : 78 b/s
Count of elements : 1045
Compression mode : Lossless
Stream size : 51.0 KiB (0%)
Title : English (英语)
Language : English
Default : No
Forced : No

Text #6
ID : 8
Format : ASS
Codec ID : S_TEXT/ASS
Codec ID/Info : Advanced Sub Station Alpha
Duration : 1 h 28 min
Bit rate : 81 b/s
Count of elements : 1068
Compression mode : Lossless
Stream size : 52.8 KiB (0%)
Title : Indonesian
Language : Indonesian
Default : No
Forced : No

Text #7
ID : 9
Format : ASS
Codec ID : S_TEXT/ASS
Codec ID/Info : Advanced Sub Station Alpha
Duration : 1 h 28 min
Bit rate : 75 b/s
Count of elements : 996
Compression mode : Lossless
Stream size : 49.0 KiB (0%)
Title : Malay
Language : Malay
Default : No
Forced : No

Text #8
ID : 10
Format : ASS
Codec ID : S_TEXT/ASS
Codec ID/Info : Advanced Sub Station Alpha
Duration : 1 h 28 min
Bit rate : 96 b/s
Count of elements : 1239
Compression mode : Lossless
Stream size : 62.9 KiB (0%)
Title : Vietnamese
Language : Vietnamese
Default : No
Forced : No

Text #9
ID : 11
Format : ASS
Codec ID : S_TEXT/ASS
Codec ID/Info : Advanced Sub Station Alpha
Duration : 1 h 31 min
Bit rate : 86 b/s
Count of elements : 1252
Compression mode : Lossless
Stream size : 57.6 KiB (0%)
Title : Korean
Language : Korean
Default : No
Forced : No

Text #10
ID : 12
Format : ASS
Codec ID : S_TEXT/ASS
Codec ID/Info : Advanced Sub Station Alpha
Duration : 1 h 28 min
Bit rate : 83 b/s
Count of elements : 1177
Compression mode : Lossless
Stream size : 54.2 KiB (0%)
Title : Spanish
Language : Spanish
Default : No
Forced : No

DOWNLOAD


PART01 |||| PART02 |||| PART03 |||| PART04 |||| PART05 |||| PART06

PART01 |||| PART02 |||| PART03 |||| PART04 |||| PART05 |||| PART06

PART01 |||| PART02 |||| PART03 |||| PART04 |||| PART05 |||| PART06

PART01 |||| PART02 |||| PART03 |||| PART04 |||| PART05 |||| PART06

PART01 |||| PART02 |||| PART03 |||| PART04 |||| PART05 |||| PART06


Leave A Reply

อีเมล์ของคุณจะไม่แสดงให้เห็น Your email address will not be published.

%d bloggers like this: