[จีน] SDU: Sex Duties Unit (2013) เอสดียู หน่วยพิฆาตปราบจิ้น [1080p] [พากย์จีน 2.0] [Netflix] [Soundtrack บรรยายไทย] [เสียงจีน + ซับไทย] [PANDAFILE]

3

โหลดหนัง SDU: Sex Duties Unit (2013) เอสดียู หน่วยพิฆาตปราบจิ้น

SDU: Sex Duties Unit | July 25, 2013 (Hong Kong) Summary:
Countries: Hong KongLanguages: Cantonese

เรื่องย่อ SDU: Sex Duties Unit (2013) เอสดียู หน่วยพิฆาตปราบจิ้น

สี่หนุ่มผู้ทำตัวไม่ยอมโตจากหน่วยรบพิเศษออกเที่ยวเตร่ไปทั่วมาเก๊าในช่วงสุดสัปดาห์แห่งโลกีย์ ซึ่งทำให้พวกเขาต้องเจอเรื่องวุ่นๆ จากการแหกกฎ

Complete name : Sex.Duties.Unit.1080p.WEB-DL.AC3.Subthai.One2loadup.com.mkv
Format : Matroska
Format version : Version 4
File size : 4.15 GiB
Duration : 1 h 36 min
Overall bit rate : 6 182 kb/s
Encoded date : UTC 2018-12-04 02:19:17
Writing application : mkvmerge v25.0.0 (‘Prog Noir’) 64-bit
Writing library : libebml v1.3.6 + libmatroska v1.4.9

Video
ID : 1
Format : AVC
Format/Info : Advanced Video Codec
Format profile : [email protected]
Format settings : CABAC / 3 Ref Frames
Format settings, CABAC : Yes
Format settings, ReFrames : 3 frames
Codec ID : V_MPEG4/ISO/AVC
Duration : 1 h 36 min
Bit rate : 6 052 kb/s
Width : 1 920 pixels
Height : 1 080 pixels
Display aspect ratio : 16:9
Frame rate mode : Constant
Frame rate : 24.000 FPS
Color space : YUV
Chroma subsampling : 4:2:0
Bit depth : 8 bits
Scan type : Progressive
Bits/(Pixel*Frame) : 0.122
Stream size : 4.07 GiB (98%)
Default : Yes
Forced : No

Audio
ID : 2
Format : AAC LC SBR
Format/Info : Advanced Audio Codec Low Complexity with Spectral Band Replication
Commercial name : HE-AAC
Format settings : Explicit
Codec ID : A_AAC-2
Duration : 1 h 36 min
Bit rate : 96.0 kb/s
Channel(s) : 2 channels
Channel layout : L R
Sampling rate : 48.0 kHz
Frame rate : 23.438 FPS (2048 SPF)
Compression mode : Lossy
Delay relative to video : -41 ms
Stream size : 66.0 MiB (2%)
Language : English
Default : Yes
Forced : No

Text #1
ID : 3
Format : PGS
Muxing mode : zlib
Codec ID : S_HDMV/PGS
Codec ID/Info : Picture based subtitle format used on BDs/HD-DVDs
Duration : 1 h 35 min
Bit rate : 58.8 kb/s
Count of elements : 3392
Stream size : 40.0 MiB (1%)
Language : Thai
Default : Yes
Forced : No

Text #2
ID : 4
Format : VobSub
Muxing mode : zlib
Codec ID : S_VOBSUB
Codec ID/Info : Picture based subtitle format used on DVDs
Duration : 1 h 35 min
Bit rate : 18.2 kb/s
Count of elements : 1696
Stream size : 12.4 MiB (0%)
Language : Thai
Default : No
Forced : No

DOWNLOAD


PART01 |||| PART02 |||| PART03 |||| PART04 |||| PART05

PART01 |||| PART02 |||| PART03 |||| PART04 |||| PART05

PART01 |||| PART02 |||| PART03 |||| PART04 |||| PART05

PART01 |||| PART02 |||| PART03 |||| PART04 |||| PART05


3 Comments
  1. Captain Barbossa
    Captain Barbossa says

    โหลดไม่ได้ครับ

    1. Admin
      Admin says

      แก้ไขเรียบร้อยฮ๊ะ

      1. Captain Barbossa
        Captain Barbossa says

        ขอบคุณครับ

Leave A Reply

อีเมล์ของคุณจะไม่แสดงให้เห็น Your email address will not be published.

%d bloggers like this: