[จีน] Ne Zha (2019) นาจา [1080p] [พากย์ไทยโรง 2.0 + เสียงจีน 2.0 + เสียงอังกฤษ 5.1] [บรรยายอังกฤษ] [เสียงไทยโรง + ซับอังกฤษ] [PANDAFILE]

0

โหลดหนัง Ne Zha (2019) นาจา

Ne Zha zhi mo tong jiang shi (2019) 1h 50min | Animation, Action, Adventure | 26 July 2019 (China)
Director: Yu YangWriters: Yu Yang, Yunyun WeiStars: Yanting Lü, Joseph, Mo Han
Summary: Born with unique powers, a boy is recruited to fight demons and save the community that fears him.
Countries: ChinaLanguages: Mandarin, English

เรื่องย่อ Ne Zha (2019) นาจา

นาจา ถูกสร้างมาหลายเวอร์ชั่นแต่ไม่มีเวอร์ชั่นไหนที่จะประสบความสำเร็จเท่ากับเวอร์ชั่นล่าสุด ปี 2019 นาจา (Nezha) ทำรายได้ทะลุ 10,000 ล้านบาท (342ล้านเหรียญ) (2,370ล้านหยาวน) ที่จีน ขึ้นแท่น animation ที่ทำรายได้สูงสุดตลอดกาลของจีน หลังจากฉายไปเพียง 10 วัน โดยทำรายได้ มากกว่า spiderman : far from home และ infinity wars (ที่จีน) แล้วทั้งนี้ นาจา หรือ หน่าจา(Nazha) เป็นเทพเจ้าตามคติความเชื่อของจีน บางตำราเชื่อว่าเป็นบุตรของเจ้าแม่กวนอิมอีกด้วยได้ถูกนำมาสร้างเป็นหนัง ละคร การ์ตูน และภาพยนตร์อยู่หลายครั้ง

Complete name : Ne.Zha.2019.1080p.WEB-DL.AC3.H264.One2loadup.com.mkv
Format : Matroska
Format version : Version 4
File size : 4.17 GiB
Duration : 1 h 50 min
Overall bit rate : 5 421 kb/s
Movie name : Ne.Zha.2019.1080p.WEB-DL.AC3.H264.One2loadup.com
Encoded date : UTC 2020-02-26 02:18:49
Writing application : mkvmerge v43.0.0 (‘The Quartermaster’) 64-bit
Writing library : libebml v1.3.10 + libmatroska v1.5.2
Cover : Yes
Attachments : small_cover.jpg / small_cover_land.jpg / cover.jpg / cover_land.jpg

Video
ID : 1
Format : AVC
Format/Info : Advanced Video Codec
Format profile : [email protected]
Format settings : CABAC / 5 Ref Frames
Format settings, CABAC : Yes
Format settings, ReFrames : 5 frames
Codec ID : V_MPEG4/ISO/AVC
Duration : 1 h 50 min
Bit rate : 4 459 kb/s
Width : 1 920 pixels
Height : 802 pixels
Display aspect ratio : 2.40:1
Frame rate mode : Constant
Frame rate : 24.000 FPS
Color space : YUV
Chroma subsampling : 4:2:0
Bit depth : 8 bits
Scan type : Progressive
Bits/(Pixel*Frame) : 0.121
Stream size : 3.43 GiB (82%)
Title : Ne.Zha.2019.1080p.WEB-DL.AC3.H264.One2loadup.com
Language : English
Default : Yes
Forced : No
Color range : Limited
Color primaries : BT.709
Transfer characteristics : BT.709
Matrix coefficients : BT.709

Audio #1
ID : 2
Format : AC-3
Format/Info : Audio Coding 3
Commercial name : Dolby Digital
Codec ID : A_AC3
Duration : 1 h 49 min
Bit rate mode : Constant
Bit rate : 448 kb/s
Channel(s) : 6 channels
Channel layout : L R C LFE Ls Rs
Sampling rate : 48.0 kHz
Frame rate : 31.250 FPS (1536 SPF)
Bit depth : 16 bits
Compression mode : Lossy
Delay relative to video : 3 s 958 ms
Stream size : 352 MiB (8%)
Language : Thai
Service kind : Complete Main
Default : Yes
Forced : No

Audio #2
ID : 3
Format : AAC LC
Format/Info : Advanced Audio Codec Low Complexity
Codec ID : A_AAC-2
Duration : 1 h 49 min
Bit rate : 128 kb/s
Channel(s) : 2 channels
Channel layout : L R
Sampling rate : 44.1 kHz
Frame rate : 43.066 FPS (1024 SPF)
Compression mode : Lossy
Delay relative to video : 3 s 958 ms
Stream size : 101 MiB (2%)
Language : Chinese
Default : No
Forced : No

Audio #3
ID : 4
Format : AC-3
Format/Info : Audio Coding 3
Commercial name : Dolby Digital
Codec ID : A_AC3
Duration : 1 h 50 min
Bit rate mode : Constant
Bit rate : 384 kb/s
Channel(s) : 6 channels
Channel layout : L R C LFE Ls Rs
Sampling rate : 48.0 kHz
Frame rate : 31.250 FPS (1536 SPF)
Bit depth : 16 bits
Compression mode : Lossy
Delay relative to video : -42 ms
Stream size : 302 MiB (7%)
Language : English
Service kind : Complete Main
Default : No
Forced : No

Text #1
ID : 5
Format : UTF-8
Codec ID : S_TEXT/UTF8
Codec ID/Info : UTF-8 Plain Text
Duration : 1 h 47 min
Bit rate : 85 b/s
Count of elements : 1907
Stream size : 67.7 KiB (0%)
Language : English
Default : Yes
Forced : No

Text #2
ID : 6
Format : UTF-8
Codec ID : S_TEXT/UTF8
Codec ID/Info : UTF-8 Plain Text
Duration : 1 h 47 min
Bit rate : 47 b/s
Count of elements : 1372
Stream size : 37.9 KiB (0%)
Title : SDH
Language : English
Default : No
Forced : No

Menu
00:00:00.000 : en:1
00:05:54.625 : en:2
00:15:38.125 : en:3
00:25:44.291 : en:4
00:35:41.041 : en:5
00:41:48.374 : en:6
00:52:09.999 : en:7
01:00:57.082 : en:8
01:08:15.415 : en:9
01:16:33.330 : en:10
01:24:03.830 : en:11
01:43:20.663 : en:12

DOWNLOAD


PART01 |||| PART02 |||| PART03 |||| PART04 |||| PART05

PART01 |||| PART02 |||| PART03 |||| PART04 |||| PART05

PART01 |||| PART02 |||| PART03 |||| PART04 |||| PART05

PART01 |||| PART02 |||| PART03 |||| PART04 |||| PART05

PART01 |||| PART02 |||| PART03 |||| PART04 |||| PART05


Leave A Reply

Your email address will not be published.

%d bloggers like this: