[จีน] Mulan (2020) มู่หลาน [1080p] [พากย์ไทยโรง 2.0 + เสียงอังกฤษ DTS] [ไม่มีบรรยาย] [Modified] [เสียงไทยโรง] [PANDAFILE]

0

โหลดหนัง Mulan (2020) มู่หลาน

Mulan (2020) 1h 55min | Action, Adventure, Drama | 4 September 2020 (USA) Summary: A young Chinese maiden disguises herself as a male warrior in order to save her father.
Countries: USA, Canada, Hong KongLanguages: English

เรื่องย่อ Mulan (2020) มู่หลาน

เรื่องราวของหญิงสาวผู้ห้าวหาญผู้ยอมเสี่ยงทุกอย่างด ้วยความรักที่เธอมีต่อวงศ์ตระกูลและประเทศชาติของเธอ เพื่อมาเป็นหนึ่งในนักรบผู้ยิ่งใหญ่ที่ประเทศจีนเคยรู้จักมาเมื่อองค์จักรพรรดิ์แห่งประเทศจีนออกพระราชโองการว่าบุรุษหนึ่งคนต่อหนึ่งครอบครัวจะต้องเข้าร่วมกองทัพเพ ื่อป้องกันประเทศจากการรุกรานของผู้บุกรุกทางเหนือ ฮัว มู่หลาน ลูกสาวคนโตของนักรบผู้ทรงเกียรติ ต้องก้าวมารับหน้าที่แทนพ่อผู้เจ็บป่วยของเธอ ด้วยการปลอมตัวเป็นชายหนุ่มที่ชื่อ ฮัว จุน เธอถูกทดสอบในทุกย่างก้าวและต้องรวบรวมความเข้มแข็งภ ายในตัวของเธอและน้อมรับศักยภาพที่แท้จริงของเธอ มันคือมหากาพย์การผจญภัยที่จะเปลี่ยนเธอสู่นักรบผู้ท รงเกียรติและเป็นที่ยอมรับนับถือจากคนในชาติและพ่อที่ภูมิใจ

มู่หลาน รวมเหล่านักแสดงระดับสากลอย่าง หลิว อี้เฟย ในบท มู่หลาน, ดอนนี่ เยน เป็นแม่ทัพถัง, เจสัน สก็อตต์ ลี เป็น โบรี่ ข่าน, โยสัน อัน เป็น เช็ง ฮงฮุย, ร่วมด้วย กง ลี่ ในบท เซี่ยนเหนียง และ เจ็ท ลี ในบท จักรพรรดิ์ กำกับภาพยนตร์โดย นิกิ คาโร จากบทภาพยนตร์โดย ริค แจฟฟา กับ อะแมนด้า ซิลเวอร์ และ อลิซาเบธ มาร์ติน กับ ลอว์เรน ไฮเนค สร้างจากบทกวีเรื่องเล่า The Ballad of Mulan

Complete name : Mulan.2020.1080p.WEBRip.EAC3.x264.THR.One2loadup.com.mkv
Format : Matroska
Format version : Version 4
File size : 5.06 GiB
Duration : 1 h 55 min
Overall bit rate : 6 294 kb/s
Movie name : Mulan.2020.1080p.WEBRip.EAC3.x264.THR.One2loadup.com
Encoded date : UTC 2020-09-05 06:45:23
Writing application : mkvmerge v9.6.0 (‘Slave To Your Mind’) 32bit
Writing library : libebml v1.3.4 + libmatroska v1.4.5

Video
ID : 1
Format : AVC
Format/Info : Advanced Video Codec
Format profile : [email protected]
Format settings : CABAC / 4 Ref Frames
Format settings, CABAC : Yes
Format settings, ReFrames : 4 frames
Codec ID : V_MPEG4/ISO/AVC
Duration : 1 h 55 min
Bit rate : 5 947 kb/s
Width : 1 920 pixels
Height : 1 080 pixels
Display aspect ratio : 16:9
Frame rate mode : Constant
Frame rate : 23.976 (24000/1001) FPS
Color space : YUV
Chroma subsampling : 4:2:0
Bit depth : 8 bits
Scan type : Progressive
Bits/(Pixel*Frame) : 0.120
Stream size : 4.70 GiB (93%)
Title : Mulan.2020.1080p.WEBRip.EAC3.x264.THR.One2loadup.com
Writing library : x264 core 152 r2854 e9a5903
Encoding settings : cabac=1 / ref=3 / deblock=1:0:0 / analyse=0x3:0x133 / me=hex / subme=7 / psy=1 / psy_rd=1.00:0.00 / mixed_ref=1 / me_range=16 / chroma_me=1 / trellis=1 / 8x8dct=1 / cqm=0 / deadzone=21,11 / fast_pskip=1 / chroma_qp_offset=-2 / threads=24 / lookahead_threads=4 / sliced_threads=0 / nr=0 / decimate=1 / interlaced=0 / bluray_compat=0 / constrained_intra=0 / bframes=3 / b_pyramid=2 / b_adapt=1 / b_bias=0 / direct=1 / weightb=1 / open_gop=0 / weightp=2 / keyint=250 / keyint_min=25 / scenecut=40 / intra_refresh=0 / rc_lookahead=40 / rc=abr / mbtree=1 / bitrate=5947 / ratetol=1.0 / qcomp=0.60 / qpmin=10 / qpmax=51 / qpstep=4 / ip_ratio=1.40 / aq=1:1.00
Default : Yes
Forced : No

Audio #1
ID : 2
Format : MPEG Audio
Format version : Version 1
Format profile : Layer 3
Codec ID : A_MPEG/L3
Codec ID/Hint : MP3
Duration : 1 h 55 min
Bit rate mode : Constant
Bit rate : 192 kb/s
Channel(s) : 2 channels
Sampling rate : 44.1 kHz
Frame rate : 38.281 FPS (1152 SPF)
Compression mode : Lossy
Delay relative to video : -250 ms
Stream size : 158 MiB (3%)
Title : thairong
Default : Yes
Forced : Yes

Audio #2
ID : 3
Format : E-AC-3
Format/Info : Enhanced AC-3
Commercial name : Dolby Digital Plus
Codec ID : A_EAC3
Duration : 1 h 55 min
Bit rate mode : Constant
Bit rate : 256 kb/s
Channel(s) : 6 channels
Channel layout : L R C LFE Ls Rs
Sampling rate : 48.0 kHz
Frame rate : 31.250 FPS (1536 SPF)
Compression mode : Lossy
Delay relative to video : 40 ms
Stream size : 211 MiB (4%)
Language : English
Service kind : Complete Main
Default : No
Forced : No

DOWNLOAD


PART01 |||| PART02 |||| PART03 |||| PART04 |||| PART05 |||| PART06

PART01 |||| PART02 |||| PART03 |||| PART04 |||| PART05 |||| PART06

PART01 |||| PART02 |||| PART03 |||| PART04 |||| PART05 |||| PART06

PART01 |||| PART02 |||| PART03 |||| PART04 |||| PART05 |||| PART06

PART01 |||| PART02 |||| PART03 |||| PART04 |||| PART05 |||| PART06



แจ้งหนังเสีย หรือโหลดไม่ได้ ทั้งลิ้งฟรีและ vip สามารถกดที่รูปด้านบนนี้ได้เลย

: Disable Comments
%d bloggers like this: