โหลดหนัง HD MINI-HD SUPER-HQ Full-HD 1080p VIP Master Zoom ซูม หนังใหม่ ออนไลน์ มาสเตอร์ ไทย จีน ฝรั่ง การ์ตูน

[MINI-HD] Unlocked (2017) ยุทธการล่าปลดล็อค [1080p.DL.H264.AC3] [พากย์ไทยโรง 5.1 + รัสเซีย 5.1] [ONE2UP]

0

โหลดหนัง  [MINI-HD] Unlocked (2017) ยุทธการล่าปลดล็อค [1080p.DL.H264.AC3] [พากย์ไทยโรง 5.1 + รัสเซีย 5.1] [ONE2UP]

เรื่องย่อ Unlocked (2017) ยุทธการล่าปลดล็อค

Unlocked เจ้าหน้าที่ของ CIA (นูมิ ราเพช) ได้รับมอบหมายให้ไปสืบหาความจริงกับปฏิบัติการที่จะทำให้ลอนดอนมีความเสี่ยงต่อการถูกโจมตีทางชีวภาพ งานนี้อาจไม่ได้แค่ต้องการความเสียหายและการลดทอนความเชื่อมั่น แต่มันอาจหมายถึงการได้เสียผลประโยชน์ของคนบางกลุ่มที่อยู่เบื้องหลัง และเมื่อการสืบหาความจริงของเธอลงลึกขึ้นเรื่อยๆ กลับพบว่าการเดินทางมาลอนดอนครั้งนี้ เหมือนถูกจัดวางไว้แล้ว ซึ่งอาจจะเป็นแผนการบางอย่างที่ต้องการให้เธอและพวกจบชีวิต เธอจะทำอย่างไรให้รอดพ้นจากแผนการสุดร้ายกาจและกลอุบายอันแยบยลที่ต้องเผชิญหน้ากับมัน

Complete name : [Mini-HD]_Unlocked.2016.1080p.WEB-DL.H264.AC3.One2loadup.com.mkv
Format : Matroska
Format version : Version 4 / Version 2
File size : 3.69 GiB
Duration : 1 h 38 min
Overall bit rate : 5 388 kb/s
Movie name : [Mini-HD]_Unlocked.2016.1080p.WEB-DL.H264.AC3.One2loadup.com
Encoded date : UTC 2017-07-25 18:05:13
Writing application : mkvmerge v14.0.0 (‘Flow’) 64bit
Writing library : libebml v1.3.4 + libmatroska v1.4.5

Video
ID : 1
Format : AVC
Format/Info : Advanced Video Codec
Format profile : [email protected]
Format settings, CABAC : Yes
Format settings, RefFrames : 5 frames
Codec ID : V_MPEG4/ISO/AVC
Duration : 1 h 38 min
Bit rate : 4 554 kb/s
Width : 1 912 pixels
Height : 792 pixels
Display aspect ratio : 2.40:1
Frame rate mode : Constant
Frame rate : 23.976 (24000/1001) FPS
Color space : YUV
Chroma subsampling : 4:2:0
Bit depth : 8 bits
Scan type : Progressive
Bits/(Pixel*Frame) : 0.125
Stream size : 3.12 GiB (85%)
Title : [Mini-HD]_Unlocked.2016.1080p.WEB-DL.H264.AC3.One2loadup.com
Language : English
Default : Yes
Forced : No
Color range : Limited
Color primaries : BT.709
Transfer characteristics : BT.709
Matrix coefficients : BT.709

Audio #1
ID : 2
Format : AC-3
Format/Info : Audio Coding 3
Format settings, Endianness : Big
Codec ID : A_AC3
Duration : 1 h 38 min
Bit rate mode : Constant
Bit rate : 448 kb/s
Channel(s) : 6 channels
Channel positions : Front: L C R, Side: L R, LFE
Sampling rate : 48.0 kHz
Frame rate : 31.250 FPS (1536 SPF)
Bit depth : 16 bits
Compression mode : Lossy
Stream size : 314 MiB (8%)
Title : ThaIRonG 5.1 By Captain
Language : Thai
Service kind : Complete Main
Default : No
Forced : No

Audio #2
ID : 3
Format : AC-3
Format/Info : Audio Coding 3
Format settings, Endianness : Big
Codec ID : A_AC3
Duration : 1 h 38 min
Bit rate mode : Constant
Bit rate : 384 kb/s
Channel(s) : 6 channels
Channel positions : Front: L C R, Side: L R, LFE
Sampling rate : 48.0 kHz
Frame rate : 31.250 FPS (1536 SPF)
Bit depth : 16 bits
Compression mode : Lossy
Stream size : 269 MiB (7%)
Title : Russian 5.1 (iTunes)
Language : Russian
Service kind : Complete Main
Default : Yes
Forced : No

Menu
00:00:00.000 : en:1
00:01:02.000 : en:2
00:14:16.000 : en:3
00:26:49.000 : en:4
00:39:05.000 : en:5
00:51:47.000 : en:6
01:03:51.000 : en:7
01:15:05.000 : en:8
01:32:02.000 : en:9

 



PART01 |||| PART02 |||| PART03 |||| PART04


PART01 |||| PART02 |||| PART03 |||| PART04


PART01 |||| PART02 |||| PART03 |||| PART04


Leave A Reply

Your email address will not be published.

%d bloggers like this: