[MINI Super-HQ] Instant Family (2018) ครอบครัวปุ๊บปั๊บ [1080p] [พากย์ไทย 2.0 + เสียงอังกฤษ DTS] [บรรยายไทย + อังกฤษ] [เสียงไทยมาสเตอร์ + ซับไทย] [OPENLOAD]

0

Instant Family (2018) ครอบครัวปุ๊บปั๊บ

โหลดหนัง Instant Family (2018) ครอบครัวปุ๊บปั๊บ

Instant Family (2018) 1h 58min | Comedy, Drama | 31 January 2019 (Netherlands) Summary: A couple find themselves in over their heads when they foster three children.
Countries: USALanguages: English

เรื่องย่อ Instant Family (2018) ครอบครัวปุ๊บปั๊บ

มาร์ค วอห์ลเบิร์ก ประกบคู่ โรส เบิร์น ในภาพยนตร์ตลกฟีลกู๊ด INSTANT FAMILY ครอบครัวปุ๊บปั๊บเรื่องราวที่ได้รับแรงบันดาลใจจากชีวิตจริงของผู้กำก ับ ฌอน แอนเดอร์ส (จาก Daddy’s Home) เมื่อคู่สามีภรรยา พีท (มาร์ค วอห์ลเบิร์ก) และ เอลลี่ (โรส เบิร์น) ตัดสินใจเริ่มสร้างครอบครัว พวกเขาจึงเริ่มต้นศึกษาเกี่ยวกับการรับอุปการะบุตรบุญธรรมและได้พบกับ 3 พี่น้อง ซึ่งหนึ่งในนั้นคือ เด็กสาวหัวรั้นวัย 15 ปี (อิซาเบล่า โมเนอร์) และพวกเขาก็กลายเป็นครอบครัวที่มีเด็ก 3 คน เพียงข้ามคืนทั้งพีทและเอลลี่ ต้องเรียนรู้การเป็นพ่อแม่และสร้างครอบครัว!!!

Complete name : [MINI Super-HQ]_Instant.Family.2018.1080p.BrRip.DTS.x264.TH2.0.One2loadup.com.mkv
Format : Matroska
Format version : Version 4
File size : 4.03 GiB
Duration : 1 h 58 min
Overall bit rate : 4 885 kb/s
Movie name : [MINI Super-HQ]_Instant.Family.2018.1080p.BrRip.DTS.x264.TH2.0.One2loadup.com
Encoded date : UTC 2010-02-22 21:41:31
Writing application : mkvmerge v5.9.0 (‘On The Loose’) built on Dec 9 2012 15:37:01
Writing library : libebml v1.3.0 + libmatroska v1.4.0

Video
ID : 1
Format : AVC
Format/Info : Advanced Video Codec
Format profile : [email protected]
Format settings : CABAC / 4 Ref Frames
Format settings, CABAC : Yes
Format settings, ReFrames : 4 frames
Codec ID : V_MPEG4/ISO/AVC
Duration : 1 h 58 min
Bit rate : 3 649 kb/s
Nominal bit rate : 3 414 kb/s
Width : 1 920 pixels
Height : 800 pixels
Display aspect ratio : 2.40:1
Frame rate mode : Constant
Frame rate : 23.976 (24000/1001) FPS
Color space : YUV
Chroma subsampling : 4:2:0
Bit depth : 8 bits
Scan type : Progressive
Bits/(Pixel*Frame) : 0.099
Stream size : 3.01 GiB (75%)
Title : [MINI Super-HQ]_Instant.Family.2018.1080p.BrRip.DTS.x264.TH2.0.One2loadup.com
Writing library : x264 core 130 r2273 b3065e6
Encoding settings : cabac=1 / ref=3 / deblock=1:0:0 / analyse=0x3:0x113 / me=umh / subme=11 / psy=1 / psy_rd=1.00:0.00 / mixed_ref=1 / me_range=48 / chroma_me=1 / trellis=2 / 8x8dct=1 / cqm=0 / deadzone=21,11 / fast_pskip=1 / chroma_qp_offset=-2 / threads=10 / lookahead_threads=1 / sliced_threads=0 / nr=0 / decimate=1 / interlaced=0 / bluray_compat=0 / constrained_intra=0 / bframes=3 / b_pyramid=2 / b_adapt=1 / b_bias=0 / direct=1 / weightb=1 / open_gop=0 / weightp=2 / keyint=240 / keyint_min=24 / scenecut=40 / intra_refresh=0 / rc_lookahead=40 / rc=2pass / mbtree=1 / bitrate=3414 / ratetol=1.0 / qcomp=0.60 / qpmin=0 / qpmax=69 / qpstep=4 / cplxblur=20.0 / qblur=0.5 / ip_ratio=1.40 / aq=1:1.00
Language : English
Default : Yes
Forced : No
Color range : Limited
Color primaries : BT.709
Transfer characteristics : BT.709
Matrix coefficients : BT.709

Audio #1
ID : 2
Format : AC-3
Format/Info : Audio Coding 3
Commercial name : Dolby Digital
Codec ID : A_AC3
Duration : 1 h 58 min
Bit rate mode : Constant
Bit rate : 384 kb/s
Channel(s) : 2 channels
Channel layout : L R
Sampling rate : 48.0 kHz
Frame rate : 31.250 FPS (1536 SPF)
Bit depth : 16 bits
Compression mode : Lossy
Stream size : 324 MiB (8%)
Title : Thai Master
Language : Thai
Service kind : Complete Main
Default : Yes
Forced : Yes

Audio #2
ID : 3
Format : DTS
Format/Info : Digital Theater Systems
Codec ID : A_DTS
Duration : 1 h 58 min
Bit rate mode : Constant
Bit rate : 755 kb/s
Channel(s) : 6 channels
Channel layout : C L R Ls Rs LFE
Sampling rate : 48.0 kHz
Frame rate : 93.750 FPS (512 SPF)
Bit depth : 24 bits
Compression mode : Lossy
Stream size : 637 MiB (15%)
Title : English DTS
Language : English
Default : No
Forced : No

Text #1
ID : 4
Format : VobSub
Codec ID : S_VOBSUB
Codec ID/Info : Picture based subtitle format used on DVDs
Title : Thai 480p
Language : Thai
Default : No
Forced : No

Text #2
ID : 5
Format : VobSub
Codec ID : S_VOBSUB
Codec ID/Info : Picture based subtitle format used on DVDs
Title : Thai 720p
Language : Thai
Default : No
Forced : No

Text #3
ID : 6
Format : VobSub
Codec ID : S_VOBSUB
Codec ID/Info : Picture based subtitle format used on DVDs
Title : Thai 1080p
Language : Thai
Default : Yes
Forced : Yes

Text #4
ID : 7
Format : VobSub
Codec ID : S_VOBSUB
Codec ID/Info : Picture based subtitle format used on DVDs
Title : Thai 1080p Yellow
Language : Thai
Default : No
Forced : No

Text #5
ID : 8
Format : VobSub
Codec ID : S_VOBSUB
Codec ID/Info : Picture based subtitle format used on DVDs
Title : Thai 1080p BIG
Language : Thai
Default : No
Forced : No

Text #6
ID : 9
Format : VobSub
Codec ID : S_VOBSUB
Codec ID/Info : Picture based subtitle format used on DVDs
Title : Thai 1080p Out
Language : Thai
Default : No
Forced : No

Text #7
ID : 10
Format : VobSub
Codec ID : S_VOBSUB
Codec ID/Info : Picture based subtitle format used on DVDs
Title : Thai 1080p Out [BIG]
Language : Thai
Default : No
Forced : No

Text #8
ID : 11
Format : PGS
Codec ID : S_HDMV/PGS
Codec ID/Info : Picture based subtitle format used on BDs/HD-DVDs
Title : Thai PGS
Language : Thai
Default : No
Forced : No

Text #9
ID : 12
Format : PGS
Codec ID : S_HDMV/PGS
Codec ID/Info : Picture based subtitle format used on BDs/HD-DVDs
Title : Thai PGS Yellow
Language : Thai
Default : No
Forced : No

Text #10
ID : 13
Format : PGS
Codec ID : S_HDMV/PGS
Codec ID/Info : Picture based subtitle format used on BDs/HD-DVDs
Title : Thai PGS Out
Language : Thai
Default : No
Forced : No

Text #11
ID : 14
Format : PGS
Codec ID : S_HDMV/PGS
Codec ID/Info : Picture based subtitle format used on BDs/HD-DVDs
Title : English
Language : English
Default : No
Forced : No

Menu #1
00:00:00.000 : en:Chapter 1
00:07:54.891 : en:Chapter 2
00:13:08.621 : en:Chapter 3
00:24:59.540 : en:Chapter 4
00:32:26.236 : en:Chapter 5
00:37:12.897 : en:Chapter 6
00:44:43.973 : en:Chapter 7
00:50:12.468 : en:Chapter 8
00:57:41.249 : en:Chapter 9
01:02:31.831 : en:Chapter 10
01:08:50.877 : en:Chapter 11
01:15:25.938 : en:Chapter 12
01:23:04.688 : en:Chapter 13
01:28:42.567 : en:Chapter 14
01:37:53.993 : en:Chapter 15
01:52:54.643 : en:Chapter 16

Menu #2
00:00:00.000 : en:Chapter 1
00:07:54.891 : en:Chapter 2
00:13:08.621 : en:Chapter 3
00:32:26.236 : en:Chapter 5
00:37:12.897 : en:Chapter 6
00:44:43.973 : en:Chapter 7
00:57:41.249 : en:Chapter 9
01:15:25.938 : en:Chapter 12
01:37:53.993 : en:Chapter 15
01:52:54.643 : en:Chapter 16

 

DOWNLOAD


PART01 |||| PART02 |||| PART03 |||| PART04

PART01 |||| PART02 |||| PART03 |||| PART04

PART01 |||| PART02 |||| PART03 |||| PART04

PART01 |||| PART02 |||| PART03 |||| PART04


Leave A Reply

Your email address will not be published.

%d bloggers like this: