[MINI-HD] App War (2018) แอปชนแอป [1080p] [พากย์ไทย 2.0] [หนังไทย] [เสียงไทยมาสเตอร์] [OPENLOAD]

0

App War (2018) แอปชนแอป

โหลดหนัง App War (2018) แอปชนแอป

App War (2018) 2h 10min | Comedy, Drama, Romance | 1 August 2018 (Thailand) Summary: Bomb and June, two app startup founders, are leading each of their teams to get their mobile applications off the ground and running. They meet each other at their favorite hideaway dinner ... See full summary »
Countries: ThailandLanguages: Thai

เรื่องย่อ App War (2018) แอปชนแอป

จากโมเดลธุรกิจพลิกโลกสู่ หนังสงครามวัยรุ่นยุคใหม่จาก T-Moment ค่ายหนังมากคอนเสปต์ที่แท็กทีมกับ พี่เสือ-ยรรยง คุรุอังกูร ผู้กำกับฝีไม้ลายมือสุดจี๊ดจาก 2538 อัลเทอร์มาจีบ พาคนดูร่วมตลุยไปในโลกธุรกิจของคน Gen-C เฉือนคมกันทั้งนอกและในโลกโซเชียล กับทัพนักแสดงวัยรุ่นเจ้าของยอดไลค์ร่วมล้าน!!

Complete name : App.War.2018.1080p.WEB-DL.AAC2.0.One2loadup.com.mkv
Format : Matroska
Format version : Version 4
File size : 7.35 GiB
Duration : 2 h 9 min
Overall bit rate : 8 091 kb/s
Movie name : App.War.2018.1080p.WEB-DL.AAC2.0.One2loadup.com
Encoded date : UTC 2019-05-03 19:32:10
Writing application : mkvmerge v32.0.0 (‘Astral Progressions’) 64-bit
Writing library : libebml v1.3.7 + libmatroska v1.5.0

Video
ID : 1
Format : AVC
Format/Info : Advanced Video Codec
Format profile : [email protected]
Format settings : CABAC / 4 Ref Frames
Format settings, CABAC : Yes
Format settings, ReFrames : 4 frames
Codec ID : V_MPEG4/ISO/AVC
Duration : 2 h 9 min
Bit rate mode : Constant
Bit rate : 8 000 kb/s
Width : 1 920 pixels
Height : 1 080 pixels
Display aspect ratio : 16:9
Frame rate mode : Constant
Frame rate : 24.000 FPS
Standard : NTSC
Color space : YUV
Chroma subsampling : 4:2:0
Bit depth : 8 bits
Scan type : Progressive
Bits/(Pixel*Frame) : 0.161
Stream size : 7.11 GiB (97%)
Default : Yes
Forced : No
Color range : Limited

Audio
ID : 2
Format : AAC LC
Format/Info : Advanced Audio Codec Low Complexity
Codec ID : A_AAC-2
Duration : 2 h 9 min
Bit rate : 254 kb/s
Channel(s) : 2 channels
Channel layout : L R
Sampling rate : 44.1 kHz
Frame rate : 43.066 FPS (1024 SPF)
Compression mode : Lossy
Delay relative to video : -42 ms
Stream size : 236 MiB (3%)
Language : Thai
Default : Yes
Forced : No

DOWNLOAD


PART01 |||| PART02 |||| PART03 |||| PART04 |||| PART05 |||| PART06 |||| PART07 |||| PART08

PART01 |||| PART02 |||| PART03 |||| PART04 |||| PART05 |||| PART06 |||| PART07 |||| PART08

PART01 |||| PART02 |||| PART03 |||| PART04 |||| PART05 |||| PART06 |||| PART07 |||| PART08

PART01 |||| PART02 |||| PART03 |||| PART04 |||| PART05 |||| PART06 |||| PART07 |||| PART08


Leave A Reply

Your email address will not be published.

%d bloggers like this: