[ฝรั่ง] Annihilation (2018) แดนทำลายล้าง [1080p] [พากย์อังกฤษ 5.1] [Soundtrack บรรยายไทย] [ซับไทย + อังกฤษ] [ONE2UP]

2

โหลดหนัง  Annihilation (2018) แดนทำลายล้าง

Annihilation (2018) 1h 55min | Adventure, Drama, Horror | 12 March 2018 (Netherlands) Summary: A biologist signs up for a dangerous, secret expedition into a mysterious zone where the laws of nature don't apply.
Countries: UK, USALanguages: English

เรื่องย่อ Annihilation (2018) แดนทำลายล้าง

ภาพยนตร์แนวแอ็คชั่นไซไฟ สร้างดัดแปลงมาจากนิยายมีชื่อที่ขายดิบขายดีเป็นเทน้ำเทท่าถล่มทลาย ผลงานเขียนบทและกำกับโดยผุ้กำกับมากฝีมือ อเล็กซ์ การ์แลนด์ ถ่ายทอดเรื่องราวของ นักชีววิทยาหญิง (นาตาลี พอร์ตแมน) เดินทางไปสู่ดินแดนลึกลับ เพื่อหาต้นสายปลายเหตุการป่วยของสามีที่เดินทางเข้าไป ก่อนหน้านี้ที่ผ่านมา ด้านในดินแดนนั้นคุณได้เจอกับสิ่งอัศจรรย์ที่ไม่อาจจะพบเจอในโลกด้านนอกที่พร้อมจะล้างผลาญทุกๆอย่าง

Complete name : Annihilation.2018.1080p.WEB-DL.Subth.x264.One2loadup.com.mkv
Format : Matroska
Format version : Version 4 / Version 2
File size : 3.27 GiB
Duration : 1 h 55 min
Overall bit rate mode : Variable
Overall bit rate : 4 052 kb/s
Movie name : Annihilation.2018.1080p.WEB-DL.Subth.x264.One2loadup.com
Encoded date : UTC 2010-02-22 21:41:31
Writing application : mkvmerge v5.9.0 (‘On The Loose’) built on Dec 9 2012 15:37:01
Writing library : libebml v1.3.0 + libmatroska v1.4.0

Video
ID : 1
Format : AVC
Format/Info : Advanced Video Codec
Format profile : [email protected]
Format settings : CABAC / 3 Ref Frames
Format settings, CABAC : Yes
Format settings, ReFrames : 3 frames
Codec ID : V_MPEG4/ISO/AVC
Duration : 1 h 55 min
Bit rate mode : Variable
Bit rate : 3 650 kb/s
Maximum bit rate : 5 475 kb/s
Width : 1 920 pixels
Height : 1 080 pixels
Display aspect ratio : 16:9
Frame rate mode : Constant
Frame rate : 23.976 (24000/1001) FPS
Color space : YUV
Chroma subsampling : 4:2:0
Bit depth : 8 bits
Scan type : Progressive
Bits/(Pixel*Frame) : 0.073
Stream size : 2.89 GiB (89%)
Writing library : x264 core 148 r2715 7e75228
Encoding settings : cabac=1 / ref=3 / deblock=1:0:0 / analyse=0x1:0x111 / me=umh / subme=10 / psy=1 / psy_rd=1.00:0.00 / mixed_ref=1 / me_range=24 / chroma_me=1 / trellis=2 / 8x8dct=0 / cqm=0 / deadzone=21,11 / fast_pskip=1 / chroma_qp_offset=-2 / threads=8 / lookahead_threads=1 / sliced_threads=0 / nr=0 / decimate=1 / interlaced=0 / bluray_compat=0 / stitchable=1 / constrained_intra=0 / bframes=2 / b_pyramid=0 / b_adapt=2 / b_bias=0 / direct=3 / weightb=1 / open_gop=0 / weightp=2 / keyint=48 / keyint_min=25 / scenecut=0 / intra_refresh=0 / rc_lookahead=48 / rc=2pass / mbtree=1 / bitrate=3650 / ratetol=1.0 / qcomp=0.50 / qpmin=6 / qpmax=51 / qpstep=4 / cplxblur=20.0 / qblur=0.5 / vbv_maxrate=5475 / vbv_bufsize=7300 / nal_hrd=vbr / filler=0 / ip_ratio=1.40 / aq=1:1.00
Default : Yes
Forced : No

Audio
ID : 2
Format : AC-3
Format/Info : Audio Coding 3
Codec ID : A_AC3
Duration : 1 h 55 min
Bit rate mode : Constant
Bit rate : 384 kb/s
Channel(s) : 6 channels
Channel positions : Front: L C R, Side: L R, LFE
Sampling rate : 48.0 kHz
Frame rate : 31.250 FPS (1536 SPF)
Bit depth : 16 bits
Compression mode : Lossy
Stream size : 317 MiB (9%)
Language : English
Service kind : Complete Main
Default : Yes
Forced : Yes

Text #1
ID : 3
Format : VobSub
Codec ID : S_VOBSUB
Codec ID/Info : Picture based subtitle format used on DVDs
Language : Thai
Default : No
Forced : No

Text #2
ID : 4
Format : PGS
Codec ID : S_HDMV/PGS
Codec ID/Info : Picture based subtitle format used on BDs/HD-DVDs
Language : Thai
Default : Yes
Forced : Yes

Text #3
ID : 5
Format : UTF-8
Codec ID : S_TEXT/UTF8
Codec ID/Info : UTF-8 Plain Text
Language : English
Default : No
Forced : No

 

DOWNLOAD


PART01 |||| PART02 |||| PART03 |||| PART04

PART01 |||| PART02 |||| PART03 |||| PART04 

PART01 |||| PART02 |||| PART03 |||| PART04

PART01 |||| PART02 |||| PART03 |||| PART04


2 Comments
  1. Coke SleepyZ
    Coke SleepyZ says

    Cornfile โหลดไม่ได้ครับ

    1. Admin
      Admin says

      โหลดได้ปกตินิ ไม่ได้ยังไงหว่า

Leave A Reply

Your email address will not be published.

%d bloggers like this: