เว็บโหลดหนัง HD MINI-HD SUPER-HQ Full-HD 1080p One2up VIP Master Zoom ซูม หนังใหม่ ออนไลน์ มาสเตอร์ ไทย จีน ฝรั่ง การ์ตูน

[เกาหลี] The Handmaiden (2016) ล้วงเล่ห์ลวงรัก [720p] [Extended Version] [พากย์เกาหลี] [Soundtrack + บรรยายไทย] [ซับไทย + อังกฤษ] [ONE2UP]

0

The Handmaiden (2016) ล้วงเล่ห์ลวงรัก

โหลดหนัง The Handmaiden (2016) ล้วงเล่ห์ลวงรัก  

เรื่องย่อ The Handmaiden (2016) ล้วงเล่ห์ลวงรัก

เป็นภาพยนตร์สัญชาติเกาหลี ผลงานการกำกับของ ปาร์คชานอุค (Oldboy) ที่ได้รับเสียงชื่นชมจากเทศกาลภาพยนตร์คานส์อย่างล้นหลาม ว่าด้วยเรื่องราวในเกาหลี ปี 1930 ยุคที่ตกอยู่ภายใต้การยึดครองของญี่ปุ่น หญิงสาวนามว่า ซุคี (คิม เตรี) เข้ามาทำงานเป็นสาวใช้ให้คุณหญิง ฮิเดโกะ (คิม มินฮี) ผู้เก็บเนื้อเก็บตัวที่ลุง โคซุกิ (โช จินวุง) คอยบงการชีวิตคุณหญิงตลอดเวลา ภายใต้ความไร้เดียงสาของซุคี แท้จริงแล้วเธอคือโจรล้วงกระเป๋าที่เจ้านาย ฟูจิวะระ (ฮา จองอู) ส่งมาเป็นนางนกต่อ เพื่อให้เขาได้แต่งงานกับฮิเดโกะแล้วเอาสมบัติ ทว่าความรู้สึกผูกพันระหว่างซุคีกับคุณหญิงกลับลึกซึ้งจนนำไปสู่การหลอกลวง และหักหลังครั้งใหญ่

Complete name : The.Handmaiden.2016.Extended.720p.BluRay.x264.One2loadup.com.mkv
Format : Matroska
Format version : Version 4 / Version 2
File size : 7.80 GiB
Duration : 2 h 47 min
Overall bit rate : 6 666 kb/s
Movie name : The.Handmaiden.2016.Extended.720p.BluRay.x264.One2loadup.com
Encoded date : UTC 2010-02-22 21:41:31
Writing application : mkvmerge v5.9.0 (‘On The Loose’) built on Dec 9 2012 15:37:01
Writing library : libebml v1.3.0 + libmatroska v1.4.0

Video
ID : 1
Format : AVC
Format/Info : Advanced Video Codec
Format profile : [email protected]
Format settings : CABAC / 12 Ref Frames
Format settings, CABAC : Yes
Format settings, ReFrames : 12 frames
Codec ID : V_MPEG4/ISO/AVC
Duration : 2 h 47 min
Bit rate : 5 894 kb/s
Width : 1 280 pixels
Height : 536 pixels
Display aspect ratio : 2.40:1
Frame rate mode : Constant
Frame rate : 23.976 (24000/1001) FPS
Color space : YUV
Chroma subsampling : 4:2:0
Bit depth : 8 bits
Scan type : Progressive
Bits/(Pixel*Frame) : 0.358
Stream size : 6.90 GiB (88%)
Title : The.Handmaiden.2016.Extended.720p.BluRay.x264.One2loadup.com
Writing library : x264 core 124 r2197+666+28 3970b70 tMod+MixAQ [[email protected]:2:0 X86_64]
Encoding settings : cabac=1 / ref=12 / deblock=1:-3:-3 / analyse=0x3:0x133 / me=tesa / subme=11 / psy=1 / fade_compensate=0.00 / psy_rd=1.05:0.10 / mixed_ref=1 / me_range=32 / chroma_me=1 / trellis=2 / 8x8dct=1 / cqm=0 / deadzone=21,11 / fast_pskip=0 / chroma_qp_offset=-3 / threads=18 / sliced_threads=0 / nr=0 / decimate=0 / interlaced=0 / bluray_compat=0 / constrained_intra=0 / fgo=0 / bframes=12 / b_pyramid=2 / b_adapt=2 / b_bias=0 / direct=3 / weightb=1 / open_gop=0 / weightp=2 / keyint=250 / keyint_min=23 / scenecut=40 / intra_refresh=0 / rc=crf / mbtree=0 / crf=16.5000 / qcomp=0.75 / qpmin=0 / qpmax=69 / qpstep=4 / ip_ratio=1.25 / pb_ratio=1.15 / aq=3 / aq-strength=0.80 / aq-sensitivity=10.00 / aq-ifactor=1.00 / aq-pfactor=1.00 / aq-bfactor=1.00 / aq2=0
Language : Korean
Default : Yes
Forced : Yes

Audio
ID : 2
Format : AC-3
Format/Info : Audio Coding 3
Codec ID : A_AC3
Duration : 2 h 47 min
Bit rate mode : Constant
Bit rate : 640 kb/s
Channel(s) : 6 channels
Channel positions : Front: L C R, Side: L R, LFE
Sampling rate : 48.0 kHz
Frame rate : 31.250 FPS (1536 SPF)
Bit depth : 16 bits
Compression mode : Lossy
Stream size : 767 MiB (10%)
Title : Korean AC3
Language : Korean
Service kind : Complete Main
Default : Yes
Forced : Yes

Text #1
ID : 3
Format : VobSub
Codec ID : S_VOBSUB
Codec ID/Info : Picture based subtitle format used on DVDs
Title : Thai 480p
Language : Thai
Default : No
Forced : No

Text #2
ID : 4
Format : VobSub
Codec ID : S_VOBSUB
Codec ID/Info : Picture based subtitle format used on DVDs
Title : Thai 720p
Language : Thai
Default : No
Forced : No

Text #3
ID : 5
Format : VobSub
Codec ID : S_VOBSUB
Codec ID/Info : Picture based subtitle format used on DVDs
Title : Thai 1080p Master + [email protected]ซินแสเทวดา
Language : Thai
Default : Yes
Forced : Yes

Text #4
ID : 6
Format : VobSub
Codec ID : S_VOBSUB
Codec ID/Info : Picture based subtitle format used on DVDs
Title : Thai 1080p Sarabun
Language : Thai
Default : No
Forced : No

Text #5
ID : 7
Format : VobSub
Codec ID : S_VOBSUB
Codec ID/Info : Picture based subtitle format used on DVDs
Title : Thai 1080p Yellow
Language : Thai
Default : No
Forced : No

Text #6
ID : 8
Format : PGS
Codec ID : S_HDMV/PGS
Codec ID/Info : Picture based subtitle format used on BDs/HD-DVDs
Title : Thai PGS
Language : Thai
Default : No
Forced : No

Text #7
ID : 9
Format : UTF-8
Codec ID : S_TEXT/UTF8
Codec ID/Info : UTF-8 Plain Text
Title : English SRT
Language : English
Default : No
Forced : No

Menu
00:00:00.000 : en:00:00:00.000
00:16:58.356 : en:00:16:58,356
00:32:05.721 : en:00:32:05,721
00:46:09.397 : en:00:46:09,397
00:59:32.074 : en:00:59:32,074
01:13:50.974 : en:01:13:50,974
01:23:08.572 : en:01:23:08,572
01:38:42.047 : en:01:38:42,047
01:48:45.232 : en:01:48:45,232
01:56:07.674 : en:01:56:07,674
02:13:58.995 : en:02:13:58,995
02:24:31.251 : en:02:24:31,251


PART01 |||| PART02 |||| PART03 |||| PART04

PART05 |||| PART06 |||| PART07 |||| PART08

PART01 |||| PART02 |||| PART03 |||| PART04

PART05 |||| PART06 |||| PART07 |||| PART08

PART01 |||| PART02 |||| PART03 |||| PART04

PART05 |||| PART06 |||| PART07 |||| PART08

PART01 |||| PART02 |||| PART03 |||| PART04

PART05 |||| PART06 |||| PART07 |||| PART08


Leave A Reply

Your email address will not be published.

%d bloggers like this: