โหลดหนัง HD MINI-HD SUPER-HQ Full-HD 1080p VIP Master Zoom ซูม หนังใหม่ ออนไลน์ มาสเตอร์ ไทย จีน ฝรั่ง การ์ตูน

[เกาหลี] Along with the Gods: The Last 49 Days (2018) ฝ่า 7 นรกไปกับพระเจ้า ภาค 2 [1080P] [พากย์ไทยโรง 2.0] [Modified] [เสียงไทยโรง + ซับจีนฝัง]

0

Along with the Gods: The Last 49 Days (2018) ฝ่า 7 นรกไปกับพระเจ้า ภาค 2

โหลดหนัง Along with the Gods: The Last 49 Days (2018) ฝ่า 7 นรกไปกับพระเจ้า ภาค 2

เรื่องย่อ Along with the Gods: The Last 49 Days (2018) ฝ่า 7 นรกไปกับพระเจ้า ภาค 2

สามเทพผู้พิทักษ์ คังลิม (ฮาจองอู), เฮวอนเมก (จูจีฮุน) และดัคชุน (คิมฮยางกี) หลังจากที่ทั้งสามได้ส่งวิญญาณของ คิมจาฮง ให้ไปเกิดใหม่ได้สำเร็จ ถึงคราวที่ทั้งสามจะต้องผจญภัยฝ่าแดนปรโลกทั้งเจ็ดสู่การพิพากษาครั้งที่ 49 เพื่อส่งดวงวิญญาณของตนเองและ คิมซูฮง (คิมดงวุค) วิญญาณอาฆาตน้องชายของคิมจาฮงกลับไปเกิดใหม่ให้สำเร็จ ในเวลาเดียวกัน ความทรงจำอันเจ็บปวดของเทพผู้พิทักษ์ทั้งสามเมื่อครั้งยังเป็นมนุษย์เริ่มกลับคืนมาจากฝีมือของเทพประจำตระกูลที่อยู่บนโลก !!!

Complete name : Along.with.the.Gods.The.Last.49.Days.2018.1080P.THR.WEB-DL.One2loadup.com.mkv
Format : Matroska
Format version : Version 4 / Version 2
File size : 3.07 GiB
Duration : 2 h 21 min
Overall bit rate mode : Constant
Overall bit rate : 3 106 kb/s
Encoded date : UTC 2018-09-23 05:10:12
Writing application : mkvmerge v8.1.0 (‘Psychedelic Postcard’) 64bit
Writing library : libebml v1.3.1 + libmatroska v1.4.2

Video
ID : 1
Format : AVC
Format/Info : Advanced Video Codec
Format profile : [email protected]
Format settings : CABAC / 1 Ref Frames
Format settings, CABAC : Yes
Format settings, ReFrames : 1 frame
Codec ID : V_MPEG4/ISO/AVC
Duration : 2 h 21 min
Bit rate mode : Constant
Bit rate : 2 800 kb/s
Width : 1 920 pixels
Height : 800 pixels
Display aspect ratio : 2.40:1
Frame rate mode : Constant
Frame rate : 23.976 (24000/1001) FPS
Color space : YUV
Chroma subsampling : 4:2:0
Bit depth : 8 bits
Scan type : Progressive
Bits/(Pixel*Frame) : 0.076
Stream size : 2.75 GiB (90%)
Default : Yes
Forced : No

Audio
ID : 2
Format : AC-3
Format/Info : Audio Coding 3
Codec ID : A_AC3
Duration : 2 h 21 min
Bit rate mode : Constant
Bit rate : 320 kb/s
Channel(s) : 2 channels
Channel positions : Front: L R
Sampling rate : 48.0 kHz
Frame rate : 31.250 FPS (1536 SPF)
Bit depth : 16 bits
Compression mode : Lossy
Stream size : 324 MiB (10%)
Title : Thai Rong 2.0
Language : Thai
Service kind : Complete Main
Default : Yes
Forced : No

DOWNLOAD


PART01 |||| PART02 |||| PART03 |||| PART04

PART01 |||| PART02 |||| PART03 |||| PART04

PART01 |||| PART02 |||| PART03 |||| PART04

PART01 |||| PART02 |||| PART03 |||| PART04


Leave A Reply

Your email address will not be published.

%d bloggers like this: