โหลดหนัง HD MINI-HD SUPER-HQ Full-HD 1080p VIP Master Zoom ซูม หนังใหม่ ออนไลน์ มาสเตอร์ ไทย จีน ฝรั่ง การ์ตูน

[Mini-HD] สยามสแควร์ (2017) Siam Square [720p] [พากย์ไทย 5.1] [ONE2UP]

0

โหลดหนัง  [Mini-HD] สยามสแควร์ (2017) Siam Square [720p] [พากย์ไทย 5.1] [ONE2UP]

เรื่องย่อ สยามสแควร์ (2017) Siam Square

เมื่อไม่กี่วันก่อนหน้า ระหว่างที่เมย์ กับจุ๊บเล็ก สองเพื่อนสนิทกำลังนั่งคุยถึงปัญหาเปิดอกที่ค้างคาใจมานานในห้องเรียนที่โรงเรียนกวดวิชาซีเครทคีย์ ซึ่งตั้งอยู่ในสยามสแควร์ ไฟทั้งตึกก็ดับสนิท…. มันไม่ใช่แค่ดับเฉพาะในตึกเรียนพิเศษ แต่ไฟดับมืดไปทั้งสยามสแควร์

ทันทีที่ไฟติด…เรื่องเล่าเกี่ยวกับ “วิญญาณเด็กสาวในสยามสแควร์” ก็ถูกขุดขึ้นมาเล่าอีกครั้ง เพราะเมื่อไฟดับ …ใครสักคนจะต้องตาย…เรื่องเล่าค่อยๆแพร่กระจายไปในอากาศ เมย์กับจุ๊บเล็ก และกลุ่มเพื่อนที่คุ้นเคยกันจากโรงเรียนกวดวิชา ก็ได้พบเจอ “ความไม่ปกติ” กันคนละอย่างสองอย่างที่ดูจะดำเนินไปตามอาถรรพ์ในเรื่องเล่าทุกประการ เด็กๆเหลือทางเลือกไม่มากนักระหว่างไม่สนใจกับเรื่องไร้สาระนั่นแล้วตั้งหน้าตั้งตาอ่านหนังสือเตรียมสอบเข้ามหาวิทยาลัย หรืออีกทางคือหันมาเผชิญหน้ากับความเป็นจริงอันน่าสะพรึงกลัวแล้วแก้ไขมัน ถึงแม้ผลลัพธ์นั้นอาจจะทำให้ไม่มีอะไรเหมือนเดิมอีกต่อไปกระทั่งมิตรภาพที่พวกเขาคิดว่าจะแน่นแฟ้นยาวนาน

Complete name : [Mini-HD]_SIAM.SQUARE.2016.720p.One2loadup.com.mkv
Format : Matroska
Format version : Version 4 / Version 2
File size : 3.65 GiB
Duration : 1 h 47 min
Overall bit rate : 4 859 kb/s
Movie name : [Mini-HD]_SIAM.SQUARE.2016.720p.One2loadup.com
Encoded date : UTC 2010-02-22 21:41:31
Writing application : mkvmerge v5.9.0 (‘On The Loose’) built on Dec 9 2012 15:37:01
Writing library : libebml v1.3.0 + libmatroska v1.4.0

Video
ID : 1
Format : AVC
Format/Info : Advanced Video Codec
Format profile : [email protected]
Format settings, CABAC : Yes
Format settings, RefFrames : 4 frames
Codec ID : V_MPEG4/ISO/AVC
Duration : 1 h 47 min
Bit rate : 4 474 kb/s
Width : 1 280 pixels
Height : 720 pixels
Display aspect ratio : 1.85:1
Original display aspect rat : 1.85:1
Frame rate mode : Constant
Frame rate : 25.000 FPS
Color space : YUV
Chroma subsampling : 4:2:0
Bit depth : 8 bits
Scan type : Progressive
Bits/(Pixel*Frame) : 0.194
Stream size : 3.24 GiB (89%)
Title : [Mini-HD]_SIAM.SQUARE.2016.720p.One2loadup.com
Writing library : x264 core 146 r2538 121396c
Encoding settings : cabac=1 / ref=3 / deblock=1:0:0 / analyse=0x3:0x113 / me=umh / subme=10 / psy=1 / psy_rd=1.00:0.00 / mixed_ref=1 / me_range=16 / chroma_me=1 / trellis=2 / 8x8dct=1 / cqm=0 / deadzone=21,11 / fast_pskip=1 / chroma_qp_offset=-2 / threads=12 / lookahead_threads=1 / sliced_threads=0 / nr=0 / decimate=1 / interlaced=0 / bluray_compat=0 / constrained_intra=0 / bframes=3 / b_pyramid=2 / b_adapt=1 / b_bias=0 / direct=1 / weightb=1 / open_gop=0 / weightp=2 / keyint=250 / keyint_min=25 / scenecut=40 / intra_refresh=0 / rc_lookahead=40 / rc=abr / mbtree=1 / bitrate=4474 / ratetol=1.0 / qcomp=0.60 / qpmin=0 / qpmax=69 / qpstep=4 / ip_ratio=1.40 / aq=1:1.00
Language : Thai
Default : Yes
Forced : No

Audio
ID : 2
Format : AC-3
Format/Info : Audio Coding 3
Format settings, Endianness : Big
Codec ID : A_AC3
Duration : 1 h 47 min
Bit rate mode : Constant
Bit rate : 448 kb/s
Channel(s) : 6 channels
Channel positions : Front: L C R, Side: L R, LFE
Sampling rate : 48.0 kHz
Frame rate : 31.250 FPS (1536 SPF)
Bit depth : 16 bits
Compression mode : Lossy
Stream size : 345 MiB (9%)
Language : Thai
Service kind : Complete Main
Default : Yes
Forced : Yes

Menu
00:00:00.000 : en:(01)00:00:00:000
00:08:44.200 : en:(02)00:08:44:200
00:17:21.240 : en:(03)00:17:21:240
00:24:23.040 : en:(04)00:24:23:040
00:33:42.240 : en:(05)00:33:42:240
00:39:30.920 : en:(06)00:39:30:920
00:47:05.040 : en:(07)00:47:05:040
00:57:02.480 : en:(08)00:57:02:480
01:05:17.080 : en:(09)01:05:17:080
01:11:25.960 : en:(10)01:11:25:960
01:24:02.920 : en:(11)01:24:02:920
01:43:15.200 : en:(12)01:43:15:200

 



PART01 |||| PART02 |||| PART03 |||| PART04

PART01 |||| PART02 |||| PART03 |||| PART04


PART01 |||| PART02 |||| PART03 |||| PART04


PART01 |||| PART02 |||| PART03 |||| PART04


Leave A Reply

Your email address will not be published.

%d bloggers like this: