เว็บโหลดหนัง HD MINI-HD SUPER-HQ Full-HD 1080p One2up VIP Master Zoom ซูม หนังใหม่ ออนไลน์ มาสเตอร์ ไทย จีน ฝรั่ง การ์ตูน

[ฝรั่ง] Truth or Dare (2018) จริงหรือกล้า…เกมสยองท้าตาย [1080p] [พากย์ไทยโรง 2.0 + อังกฤษ 2.0] [EXTENDED Version] [เสียงไทยโรง] [ONE2UP]

0

โหลดหนัง  Truth or Dare (2018) จริงหรือกล้า…เกมสยองท้าตาย

เรื่องย่อ Truth or Dare (2018) จริงหรือกล้า…เกมสยองท้าตาย

บลัมเฮาส์ โปรดักชั่นส์ ผู้สร้าง Happy Death Day, Get Out, Split ส่งผลงานสุดสะพรึงมาเขย่าขวัญผู้ชมอีกครั้งกับ Blumhouse’s Truth or Dare จริงหรือกล้า…เกมสยองท้าตาย ภาพยนตร์ทริลเลอร์เหนือธรรมชาติ นำแสดงโดย ลูซี่ เฮล (Pretty Little Liars) และไทเลอร์ โพซี่ (Teen Wolf) นำแสดงในเรื่องราวของเกมอันตราย Truth or Dare ที่เล่นกันในกลุ่มเพื่อน และนำไปสู่ความระทึก เมื่อมีบางคนหรือบางสิ่งทำโทษคนที่โกหกหรือปฏิเสธคำท้า

Complete name : Truth.or.Dare.2018.EXTENDED.1080p.WEB-DL.H264.THR2.0.One2loadup.com.mkv
Format : Matroska
Format version : Version 4 / Version 2
File size : 3.51 GiB
Duration : 1 h 40 min
Overall bit rate : 5 000 kb/s
Movie name : Truth.or.Dare.2018.EXTENDED.1080p.WEB-DL.H264.THR2.0.One2loadup.com
Encoded date : UTC 2018-06-21 06:09:23
Writing application : mkvmerge v23.0.0 (‘The Bride Said No’) 64-bit
Writing library : libebml v1.3.6 + libmatroska v1.4.9
Cover : Yes
Attachments : small_cover.jpg / small_cover_land.jpg / cover.jpg / cover_land.jpg

Video
ID : 1
Format : AVC
Format/Info : Advanced Video Codec
Format profile : [email protected]
Format settings : CABAC / 5 Ref Frames
Format settings, CABAC : Yes
Format settings, ReFrames : 5 frames
Codec ID : V_MPEG4/ISO/AVC
Duration : 1 h 40 min
Bit rate : 4 550 kb/s
Width : 1 916 pixels
Height : 796 pixels
Display aspect ratio : 2.40:1
Frame rate mode : Constant
Frame rate : 23.976 (23976/1000) FPS
Color space : YUV
Chroma subsampling : 4:2:0
Bit depth : 8 bits
Scan type : Progressive
Bits/(Pixel*Frame) : 0.124
Stream size : 3.20 GiB (91%)
Title : Truth.or.Dare.2018.EXTENDED.1080p.WEB-DL.H264.THR2.0.One2loadup.com
Language : English
Default : Yes
Forced : No
Color range : Limited
Color primaries : BT.709
Transfer characteristics : BT.709
Matrix coefficients : BT.709

Audio #1
ID : 2
Format : AC-3
Format/Info : Audio Coding 3
Codec ID : A_AC3
Duration : 1 h 40 min
Bit rate mode : Constant
Bit rate : 192 kb/s
Channel(s) : 2 channels
Channel positions : Front: L R
Sampling rate : 48.0 kHz
Frame rate : 31.250 FPS (1536 SPF)
Bit depth : 16 bits
Compression mode : Lossy
Delay relative to video : 957 ms
Stream size : 138 MiB (4%)
Title : Thai Rong 2.0
Language : Thai
Service kind : Complete Main
Default : Yes
Forced : Yes

Audio #2
ID : 3
Format : AAC
Format/Info : Advanced Audio Codec
Format profile : LC
Codec ID : A_AAC-2
Duration : 1 h 40 min
Bit rate : 256 kb/s
Channel(s) : 2 channels
Channel positions : Front: L R
Sampling rate : 48.0 kHz
Frame rate : 46.875 FPS (1024 SPF)
Compression mode : Lossy
Delay relative to video : -43 ms
Stream size : 184 MiB (5%)
Title : English 2.0
Language : English
Default : No
Forced : No

Menu
00:00:00.000 : :1
00:02:31.151 : :2
00:10:49.065 : :3
00:14:15.396 : :4
00:20:27.476 : :5
00:25:16.306 : :6
00:29:20.717 : :7
00:34:53.800 : :8
00:41:22.104 : :9
00:45:28.934 : :10
00:48:33.535 : :11
00:54:42.695 : :12
00:58:26.418 : :13
01:05:53.656 : :14
01:10:04.114 : :15
01:15:46.956 : :16
01:21:59.244 : :17
01:28:26.214 : :18
01:31:46.998 : :19
01:37:56.742 : :20

DOWNLOAD


PART01 |||| PART02 |||| PART03 |||| PART04

PART01 |||| PART02 |||| PART03 |||| PART04

PART01 |||| PART02 |||| PART03 |||| PART04

PART01 |||| PART02 |||| PART03 |||| PART04


Leave A Reply

Your email address will not be published.

%d bloggers like this: