[ฝรั่ง] The Irishman (2019) คนใหญ่ไอริช [1080p] [Netflix] [พากย์ไทย 5.1 + เสียงอังกฤษ 5.1] [บรรยายไทย] [เสียงไทย + ซับไทย] [PANDAFILE]

0

โหลดหนัง The Irishman (2019) คนใหญ่ไอริช

The Irishman (2019) 3h 29min | Biography, Crime, Drama | 27 November 2019 (Germany) Summary: A mob hitman recalls his possible involvement with the slaying of Jimmy Hoffa.
Countries: USALanguages: English, Italian, Latin

เรื่องย่อ The Irishman (2019) คนใหญ่ไอริช

มือปืนแฟรงค์ เชียรัน นึกย้อนไปถึงความลับต่างๆ ที่รักษาไว้เมื่อครั้งเป็นสมาชิกผู้ภักดีของแก๊งบัฟฟาลิโนในภาพยนตร์ที่ได้รับคำชื่นชมอย่างล้นหลามของมาร ์ติน

Complete name : The.Irishman.2019.1080.x264.WEB-DL.NF.One2loadup.com.mkv
Format : Matroska
Format version : Version 4
File size : 7.55 GiB
Duration : 3 h 29 min
Overall bit rate : 5 160 kb/s
Movie name : The.Irishman.2019.1080.x264.WEB-DL.NF.One2loadup.com
Encoded date : UTC 2019-11-27 10:02:24
Writing application : mkvmerge v40.0.0 (‘Old Town Road + Pony’) 64-bit
Writing library : libebml v1.3.9 + libmatroska v1.5.2

Video
ID : 1
Format : AVC
Format/Info : Advanced Video Codec
Format profile : [email protected]
Format settings : CABAC / 3 Ref Frames
Format settings, CABAC : Yes
Format settings, ReFrames : 3 frames
Codec ID : V_MPEG4/ISO/AVC
Duration : 3 h 29 min
Bit rate : 3 738 kb/s
Width : 1 920 pixels
Height : 1 080 pixels
Display aspect ratio : 16:9
Frame rate mode : Constant
Frame rate : 24.000 FPS
Color space : YUV
Chroma subsampling : 4:2:0
Bit depth : 8 bits
Scan type : Progressive
Bits/(Pixel*Frame) : 0.075
Stream size : 5.47 GiB (72%)
Title : The.Irishman.2019.1080.x264.WEB-DL.NF.One2loadup.com
Default : Yes
Forced : No

Audio #1
ID : 2
Format : E-AC-3 JOC
Format/Info : Enhanced AC-3 with Joint Object Coding
Commercial name : Dolby Digital Plus with Dolby Atmos
Codec ID : A_EAC3
Duration : 3 h 29 min
Bit rate mode : Constant
Bit rate : 768 kb/s
Channel(s) : 6 channels
Channel layout : L R C LFE Ls Rs
Sampling rate : 48.0 kHz
Frame rate : 31.250 FPS (1536 SPF)
Compression mode : Lossy
Delay relative to video : -83 ms
Stream size : 1.12 GiB (15%)
Language : English
Service kind : Complete Main
Default : Yes
Forced : No
Complexity index : 16
Number of dynamic objects : 15
Bed channel count : 1 channel
Bed channel configuration : LFE

Audio #2
ID : 3
Format : E-AC-3
Format/Info : Enhanced AC-3
Commercial name : Dolby Digital Plus
Codec ID : A_EAC3
Duration : 3 h 29 min
Bit rate mode : Constant
Bit rate : 640 kb/s
Channel(s) : 6 channels
Channel layout : L R C LFE Ls Rs
Sampling rate : 48.0 kHz
Frame rate : 31.250 FPS (1536 SPF)
Compression mode : Lossy
Delay relative to video : -83 ms
Stream size : 959 MiB (12%)
Language : Thai
Service kind : Complete Main
Default : No
Forced : No

Text
ID : 4
Format : PGS
Muxing mode : zlib
Codec ID : S_HDMV/PGS
Codec ID/Info : Picture based subtitle format used on BDs/HD-DVDs
Duration : 3 h 28 min
Bit rate : 26.5 kb/s
Count of elements : 5912
Stream size : 39.5 MiB (1%)
Language : Thai
Default : Yes
Forced : No

DOWNLOAD


PART01 |||| PART02 |||| PART03 |||| PART04 |||| PART05 |||| PART06 |||| PART07 |||| PART08

PART01 |||| PART02 |||| PART03 |||| PART04 |||| PART05 |||| PART06 |||| PART07 |||| PART08

PART01 |||| PART02 |||| PART03 |||| PART04 |||| PART05 |||| PART06 |||| PART07 |||| PART08

PART01 |||| PART02 |||| PART03 |||| PART04 |||| PART05 |||| PART06 |||| PART07 |||| PART08


Leave A Reply

Your email address will not be published.

%d bloggers like this: