โหลดหนัง HD MINI-HD SUPER-HQ Full-HD 1080p VIP Master Zoom ซูม หนังใหม่ ออนไลน์ มาสเตอร์ ไทย จีน ฝรั่ง การ์ตูน

[ฝรั่ง] Skyscraper (2018) ระห่ำตึกเสียดฟ้า [1080p] [พากย์ไทย 5.1 + อังกฤษ 5.1] [ไม่มีซับ] [Modified] [เสียงไทยมาสเตอร์]

0

โหลดหนัง Skyscraper (2018) ระห่ำตึกเสียดฟ้า

เรื่องย่อ Skyscraper (2018) ระห่ำตึกเสียดฟ้า

Dwayne Johnson รับบท วิล ฟอร์ด อดีตหัวหน้าทีมช่วยชีวิตตัวประกันเอฟบีไอและอดีตทหารผ่านศีก ซึ่งปัจจุบัน รับงานประเมินความปลอดภัยให้กับตึกระฟ้าเขามารับงานในจีนและเผชิญกับเหตุการณ์ตึกที่สูงสุดและปลอดภัยที่สุด ซึ่งดันมาเกิดเหตุเพลิงไหม้ไม่พอ เขายังถูกใส่ร้ายว่าเป็นคนวางเพลิงทั้งๆ ที่ครอบครัวของเขาก็ติดอยู่ในตึกที่กำลังโดนเพลิงไหม้อยู่นั่น
วิลต้องค้นหาว่าใครเป็นผู้อยู่เบื้องหลังและต้องกอบกู้ชื่อเสียงของตัวเอง และช่วยเหลือครอบครัวที่ติดอยู่ในตึกนั้นไปพร้อมๆ กันด้วย

Complete name : Skyscraper.2018.1080p.WEB-DL.DD5.1.H264.One2loadup.com.mkv
Format : Matroska
Format version : Version 4 / Version 2
File size : 4.03 GiB
Duration : 1 h 44 min
Overall bit rate : 5 548 kb/s
Movie name : Skyscraper.2018.1080p.WEB-DL.DD5.1.H264.One2loadup.com
Encoded date : UTC 2018-09-26 18:18:14
Writing application : mkvmerge v6.0.0 (‘Coming Up For Air’) built on Jan 20 2013 09:52:00
Writing library : libebml v1.3.0 + libmatroska v1.4.0
Cover : Yes
Attachments : small_cover.jpg / small_cover_land.jpg / cover.jpg / cover_land.jpg

Video
ID : 1
Format : AVC
Format/Info : Advanced Video Codec
Format profile : [email protected]
Format settings : CABAC / 5 Ref Frames
Format settings, CABAC : Yes
Format settings, ReFrames : 5 frames
Codec ID : V_MPEG4/ISO/AVC
Duration : 1 h 44 min
Bit rate : 4 414 kb/s
Width : 1 920 pixels
Height : 798 pixels
Display aspect ratio : 2.40:1
Frame rate mode : Constant
Frame rate : 23.976 (24000/1001) FPS
Color space : YUV
Chroma subsampling : 4:2:0
Bit depth : 8 bits
Scan type : Progressive
Bits/(Pixel*Frame) : 0.120
Stream size : 3.21 GiB (80%)
Title : Skyscrape
Language : English
Default : Yes
Forced : No
Color range : Limited
Color primaries : BT.709
Transfer characteristics : BT.709
Matrix coefficients : BT.709
Statistics Tags Issue : mkvmerge v26.0.0 (‘In The Game’) 64-bit 2018-09-25 06:05:15 / mkvmerge v6.0.0 (‘Coming Up For Air’) built on Jan 20 2013 09:52:00 2018-09-26 18:18:14
FromStats_BitRate : 4599167
FromStats_Duration : 01:42:24.430000000
FromStats_FrameCount : 147319
FromStats_StreamSize : 3532407628

Audio #1
ID : 2
Format : AC-3
Format/Info : Audio Coding 3
Codec ID : A_AC3
Duration : 1 h 44 min
Bit rate mode : Constant
Bit rate : 640 kb/s
Channel(s) : 6 channels
Channel positions : Front: L C R, Side: L R, LFE
Sampling rate : 48.0 kHz
Frame rate : 31.250 FPS (1536 SPF)
Bit depth : 16 bits
Compression mode : Lossy
Delay relative to video : -42 ms
Stream size : 476 MiB (12%)
Title : Thai-Master
Language : Thai
Service kind : Complete Main
Default : Yes
Forced : No

Audio #2
ID : 3
Format : AC-3
Format/Info : Audio Coding 3
Codec ID : A_AC3
Duration : 1 h 44 min
Bit rate mode : Constant
Bit rate : 384 kb/s
Channel(s) : 6 channels
Channel positions : Front: L C R, Side: L R, LFE
Sampling rate : 48.0 kHz
Frame rate : 31.250 FPS (1536 SPF)
Bit depth : 16 bits
Compression mode : Lossy
Delay relative to video : -42 ms
Stream size : 286 MiB (7%)
Title : English-5.1
Language : English
Service kind : Complete Main
Default : No
Forced : No
Statistics Tags Issue : mkvmerge v26.0.0 (‘In The Game’) 64-bit 2018-09-25 06:05:15 / mkvmerge v6.0.0 (‘Coming Up For Air’) built on Jan 20 2013 09:52:00 2018-09-26 18:18:14
FromStats_BitRate : 384000
FromStats_Duration : 01:42:24.480000000
FromStats_FrameCount : 192015
FromStats_StreamSize : 294935040

Menu
00:00:00.000 : en:1
00:04:25.765 : en:2
00:10:08.357 : en:3
00:16:10.927 : en:4
00:21:13.604 : en:5
00:25:35.991 : en:6
00:30:12.726 : en:7
00:35:24.913 : en:8
00:40:08.112 : en:9
00:47:19.960 : en:10
00:52:11.251 : en:11
00:58:17.784 : en:12
01:02:03.968 : en:13
01:05:30.632 : en:14
01:10:00.401 : en:15
01:14:32.423 : en:16
01:17:19.256 : en:17
01:23:34.339 : en:18
01:27:47.216 : en:19
01:32:55.566 : en:20

DOWNLOAD


PART01 |||| PART02 |||| PART03 |||| PART04 |||| PART05

PART01 |||| PART02 |||| PART03 |||| PART04 |||| PART05

PART01 |||| PART02 |||| PART03 |||| PART04 |||| PART05

PART01 |||| PART02 |||| PART03 |||| PART04 |||| PART05


Leave A Reply

Your email address will not be published.

%d bloggers like this: