[ฝรั่ง] Rambo: Last Blood (2019) แรมโบ้ 5 นักรบคนสุดท้าย [1080p] [พากย์ไทยโรง 2.0 + เสียงอังกฤษ 2.0] [บรรยายเกาหลีฝัง] [เสียงไทยโรง] [PANDAFILE]

0

Rambo: Last Blood (2019)

โหลดหนัง Rambo: Last Blood (2019) แรมโบ้ 5 นักรบคนสุดท้าย

Rambo: Last Blood (2019) 1h 29min | Action, Adventure, Thriller | 19 September 2019 (Germany) Summary: Rambo must confront his past and unearth his ruthless combat skills to exact revenge in a final mission.
Countries: USA, Spain, BulgariaLanguages: English, Spanish

เรื่องย่อ Rambo: Last Blood (2019) แรมโบ้ 5 นักรบคนสุดท้าย

เรื่องราวที่ จอห์น แรมโบ้ ต้องรับมือกับโรคเครียดรุนแรงหลังเจอเหตุการณ์สะเทือ นขวัญ (PTSD) ขณะที่เขาพักอาศัยอยู่ที่ฟาร์มเลี้ยงสัตว์ในแอริโซนา เขาพยายามที่จะยืนหยัดด้วยการทำงานแบบชิลล์ ๆ ที่ไหนก็ตามที่เขาจะสามารถทำได้ แล้วไม่นานเพื่อนและผู้จัดการทรัพย์สินของเขามาเรีย ก็มาบอกให้เขารู้ว่าหลานสาวของเธอหายตัวไปหลังจากเดินทางไปเม็กซิโกเพื่อไปร่วมงานปาร์ตี้ ดังนั้นจอห์นจึงตัดสินใจออกเดินทางไปยังแดนใต้เพื่อตามหาเด็กสาวคนนั้น แต่แล้วการสืบหามันก็ได้พาเขาดำดิ่งลงไปสู่เส้นทางนรกที่แสนอันตราย แรมโบ้ต้องเปิดโปงวงจรค้าประเวณีผิดกฏหมาย เขาต้องมาร่วมมือกับนักข่าวคนหนึ่งที่น้องสาวของเขาก็ถูกลักพาตัวไปเช่นกัน แรมโบ้ต้องปรับใช้ทักษะทั้งหมดที่เขามีเพื่อปกป้องเด็กสาวเหล่านั้น แล้วก็เพื่อที่จะปราบแก๊งค์อาชญากรชั่วร้ายแก๊งค์นั้นให้สิ้นซาก!!!

Complete name : Rambo.Last.Blood.2019.1080p.KORSUB.HDRip.x264.AC3.THR2.0.One2loadup.com.mkv
Format : Matroska
Format version : Version 4
File size : 3.32 GiB
Duration : 1 h 30 min
Overall bit rate : 5 260 kb/s
Movie name : Rambo.Last.Blood.2019.1080p.KORSUB.HDRip.x264.AC3.THR2.0.One2loadup.com
Encoded date : UTC 2019-11-25 10:34:21
Writing application : mkvmerge v25.0.0 (‘Prog Noir’) 64-bit
Writing library : libebml v1.3.6 + libmatroska v1.4.9
Cover : Yes

Video
ID : 1
Format : AVC
Format/Info : Advanced Video Codec
Format profile : [email protected]
Format settings : CABAC / 4 Ref Frames
Format settings, CABAC : Yes
Format settings, ReFrames : 4 frames
Codec ID : V_MPEG4/ISO/AVC
Duration : 1 h 30 min
Bit rate : 4 800 kb/s
Width : 1 920 pixels
Height : 800 pixels
Display aspect ratio : 2.40:1
Frame rate mode : Constant
Frame rate : 30.000 FPS
Color space : YUV
Chroma subsampling : 4:2:0
Bit depth : 8 bits
Scan type : Progressive
Bits/(Pixel*Frame) : 0.104
Stream size : 3.04 GiB (91%)
Title : Rambo.Last.Blood.2019.1080p.KORSUB.HDRip.x264.AC3.THR2.0.One2loadup.com
Writing library : x264 core 148 r2748 97eaef2
Encoding settings : cabac=1 / ref=4 / deblock=1:0:0 / analyse=0x3:0x113 / me=umh / subme=9 / psy=1 / psy_rd=1.00:0.00 / mixed_ref=1 / me_range=16 / chroma_me=1 / trellis=2 / 8x8dct=1 / cqm=0 / deadzone=21,11 / fast_pskip=1 / chroma_qp_offset=-2 / threads=72 / lookahead_threads=6 / sliced_threads=0 / nr=0 / decimate=1 / interlaced=0 / bluray_compat=0 / constrained_intra=0 / bframes=3 / b_pyramid=2 / b_adapt=2 / b_bias=0 / direct=3 / weightb=1 / open_gop=0 / weightp=2 / keyint=250 / keyint_min=25 / scenecut=40 / intra_refresh=0 / rc_lookahead=50 / rc=abr / mbtree=1 / bitrate=4800 / ratetol=1.0 / qcomp=0.60 / qpmin=0 / qpmax=69 / qpstep=4 / ip_ratio=1.40 / aq=1:1.00
Language : English
Default : Yes
Forced : No

Audio #1
ID : 2
Format : AC-3
Format/Info : Audio Coding 3
Commercial name : Dolby Digital
Codec ID : A_AC3
Duration : 1 h 30 min
Bit rate mode : Constant
Bit rate : 192 kb/s
Channel(s) : 2 channels
Channel layout : L R
Sampling rate : 48.0 kHz
Frame rate : 31.250 FPS (1536 SPF)
Bit depth : 16 bits
Compression mode : Lossy
Stream size : 124 MiB (4%)
Title : Thai Rong 2.0
Language : Thai
Service kind : Complete Main
Default : Yes
Forced : No

Audio #2
ID : 3
Format : AAC LC
Format/Info : Advanced Audio Codec Low Complexity
Codec ID : A_AAC-2
Duration : 1 h 30 min
Bit rate : 256 kb/s
Channel(s) : 2 channels
Channel layout : L R
Sampling rate : 48.0 kHz
Frame rate : 46.875 FPS (1024 SPF)
Compression mode : Lossy
Delay relative to video : 37 ms
Stream size : 166 MiB (5%)
Title : English AAC 2.0 @256 Kbps
Language : English
Default : No
Forced : No

Text
ID : 4
Format : UTF-8
Codec ID : S_TEXT/UTF8
Codec ID/Info : UTF-8 Plain Text
Duration : 1 h 19 min
Bit rate : 8 b/s
Count of elements : 182
Stream size : 4.81 KiB (0%)
Title : English-FORCED
Language : English
Default : Yes
Forced : Yes

DOWNLOAD


PART01 |||| PART02 |||| PART03 |||| PART04

PART01 |||| PART02 |||| PART03 |||| PART04

PART01 |||| PART02 |||| PART03 |||| PART04

PART01 |||| PART02 |||| PART03 |||| PART04


Leave A Reply

Your email address will not be published.

%d bloggers like this: