โหลดหนัง HD MINI-HD SUPER-HQ Full-HD 1080p VIP Master Zoom ซูม หนังใหม่ ออนไลน์ มาสเตอร์ ไทย จีน ฝรั่ง การ์ตูน

[ฝรั่ง] Hereditary (2018) กรรมพันธุ์นรก [1080p] [พากย์อังกฤษ 5.1] [Soundtrack บรรยายไทย + อังกฤษ] [เสียงอังกฤษ + ซับไทย] [OPENLOAD]

0

โหลดหนัง  Hereditary (2018) กรรมพันธุ์นรก

เรื่องย่อ Hereditary (2018) กรรมพันธุ์นรก

Hereditary เป็นเรื่องราวของครอบครัว Graham ที่หลังจากสูญเสียปูชนียบุคคลในครอบครัวไป ลูกหลานในครอบครัวนี้ก็เริ่มจะเจอสิ่งลึกลับและน่ากลัวมากขึ้นเรื่อยๆ และก็เริ่มที่จะรู้เรื่องราวอันน่าสะพรึงกลัวเกี่ยวกับต้นตระกูลบรรพบุรุษของพวกเขาทุกๆต้นตระกูล…ล้วนมีความลับ เตรียมพิสูจน์ความหลอนด้วยตาของคุณเอง

Complete name : Hereditary.2018.1080p.WEB-DL.AC3.H264.Subthai.One2loadup.com.mkv
Format : Matroska
Format version : Version 4
File size : 4.44 GiB
Duration : 2 h 7 min
Overall bit rate : 4 984 kb/s
Movie name : Hereditary.2018.1080p.WEB-DL.AC3.H264.Subthai.One2loadup.com
Encoded date : UTC 2018-10-04 11:55:55
Writing application : mkvmerge v17.0.0 (‘Be Ur Friend’) 64-bit
Writing library : libebml v1.3.5 + libmatroska v1.4.8
Cover : Yes
Attachments : small_cover.jpg / small_cover_land.jpg / cover.jpg / cover_land.jpg

Video
ID : 1
Format : AVC
Format/Info : Advanced Video Codec
Format profile : [email protected]
Format settings : CABAC / 4 Ref Frames
Format settings, CABAC : Yes
Format settings, ReFrames : 4 frames
Codec ID : V_MPEG4/ISO/AVC
Duration : 2 h 7 min
Bit rate : 4 582 kb/s
Width : 1 920 pixels
Height : 952 pixels
Display aspect ratio : 2.017
Frame rate mode : Constant
Frame rate : 23.976 (23976/1000) FPS
Color space : YUV
Chroma subsampling : 4:2:0
Bit depth : 8 bits
Scan type : Progressive
Bits/(Pixel*Frame) : 0.105
Stream size : 4.09 GiB (92%)
Title : Hereditary.2018.1080p.WEB-DL.AC3.H264.Subthai.One2loadup.com
Language : English
Default : Yes
Forced : No
Color range : Limited
Color primaries : BT.709
Transfer characteristics : BT.709
Matrix coefficients : BT.709

Audio
ID : 2
Format : AC-3
Format/Info : Audio Coding 3
Commercial name : Dolby Digital
Codec ID : A_AC3
Duration : 2 h 7 min
Bit rate mode : Constant
Bit rate : 384 kb/s
Channel(s) : 6 channels
Channel layout : L R C LFE Ls Rs
Sampling rate : 48.0 kHz
Frame rate : 31.250 FPS (1536 SPF)
Bit depth : 16 bits
Compression mode : Lossy
Delay relative to video : -42 ms
Stream size : 351 MiB (8%)
Language : English
Service kind : Complete Main
Default : Yes
Forced : No

Text #1
ID : 3
Format : UTF-8
Codec ID : S_TEXT/UTF8
Codec ID/Info : UTF-8 Plain Text
Duration : 2 h 0 min
Bit rate : 33 b/s
Count of elements : 1018
Stream size : 29.5 KiB (0%)
Language : English
Default : Yes
Forced : No

Text #2
ID : 4
Format : PGS
Muxing mode : zlib
Codec ID : S_HDMV/PGS
Codec ID/Info : Picture based subtitle format used on BDs/HD-DVDs
Duration : 2 h 2 min
Bit rate : 36.7 kb/s
Count of elements : 2050
Stream size : 32.2 MiB (1%)
Language : Thai
Default : No
Forced : No

Menu
00:00:00.000 : en:1
00:07:10.000 : en:2
00:13:28.000 : en:3
00:19:15.000 : en:4
00:25:35.000 : en:5
00:32:49.000 : en:6
00:39:23.000 : en:7
00:47:41.000 : en:8
00:51:03.000 : en:9
00:56:27.000 : en:10
01:04:20.000 : en:11
01:10:57.000 : en:12
01:16:27.000 : en:13
01:24:56.000 : en:14
01:32:11.000 : en:15
01:37:20.000 : en:16
01:42:18.000 : en:17
01:50:51.000 : en:18
01:58:34.000 : en:19
02:03:18.000 : en:20

DOWNLOAD


PART01 |||| PART02 |||| PART03 |||| PART04 |||| PART05

PART01 |||| PART02 |||| PART03 |||| PART04 |||| PART05

PART01 |||| PART02 |||| PART03 |||| PART04 |||| PART05

PART01 |||| PART02 |||| PART03 |||| PART04 |||| PART05


Leave A Reply

Your email address will not be published.

%d bloggers like this: