โหลดหนัง HD MINI-HD SUPER-HQ Full-HD 1080p VIP Master Zoom ซูม หนังใหม่ ออนไลน์ มาสเตอร์ ไทย จีน ฝรั่ง การ์ตูน

[ฝรั่ง] Goosebumps 2: Haunted Halloween (2018) คืนอัศจรรย์ขนหัวลุก: หุ่นฝังแค้น [1080p] [พากย์ไทยโรง 2.0 + เสียงอังกฤษ 5.1] [ไม่มีบรรยาย] [เสียงไทยโรง] [OPENLOAD]

3

โหลดหนัง Goosebumps 2: Haunted Halloween (2018) คืนอัศจรรย์ขนหัวลุก: หุ่นฝังแค้น

เรื่องย่อ Goosebumps 2: Haunted Halloween (2018) คืนอัศจรรย์ขนหัวลุก: หุ่นฝังแค้น

เรื่องราวของครอบครัวควินน์ ที่ประกอบไปด้วยซาราห์ (เมดิสัน ไอส์แมน) นักเรียนไฮสคูลปีสุดท้าย, ซันนี (เจเรมี เรย์ เทย์เลอร์) น้องชายที่เรียนม.ต้นของเธอและเคธี (เวนดี้ แม็คเลนดอน-โควีย์) แม่ของพวกเขา ระหว่างเหตุการณ์น่าขบขัน น่าตื่นเต้นและสยองขวัญใหม่แกะกล่อง ซันนีและแซม (คาลีล แฮร์ริส) เพื่อนที่โรงเรียนของเขา เป็นเพื่อนซี้ที่มีงานเสริมเป็น พี่น้องขยะ ที่คอยเก็บรวบรวมสิ่งชองเหลือใช้ที่คนอื่นๆ ไม่ต้องการแล้ว แต่โชคร้ายที่มันเป็นงานที่นำพวกเขาไปสู่ (เฮือก) สแล็ปปี้ (เอเวรี ลี โจนส์) หุ่นเชิดจอมซนจากหนังสือ Goosebumps ที่ไม่ได้รับการตีพิมพ์ ในตอนแรก สแล็ปปี้ดูเหมือนไม่ได้ต้องการอะไรนอกจากการได้เป็นส ่วนหนึ่งของครอบครัวควินน์ แต่เมื่อการกลั่นแกล้งของเขาเลยเถิดมากไป ซาราห์, ซันนีและแซมก็ตระหนักได้ว่า พวกเขาจะต้องหยุดยั้งหุ่นเชิดที่อันตรายตัวนี้ให้ได้ เมื่อความต้องการอันหมกมุ่นของเขาในการจะได้เป็นสมาช ิกคนหนึ่งในครอบครัวควินน์ถูกปฏิเสธ สแล็ปปี้ก็ตัดสินใจจะสร้าง ครอบครัว ของตัวเองด้วยการลักพาตัวเคธีและปลุกชีพให้กับเพื่อน ๆ ฮัลโลวีนทั้งหมดของเขา รวมถึงวอลเตอร์ (คริส พาร์เนล) สมุนยักษ์ตัวใหม่ของเขาด้วย

เมื่อฮัลโลวีนเปลี่ยนเมืองที่หลับใหลของพวกเขาให้กลายเป็นศูนย์รวมสัตว์ประหลาดอย่างเต็มรูปแบบ ที่มีตัวประหลาดพิลึกพิลั่นน่าขันมากมาย อย่างกัมมีแบร์ยักษ์และโนมในสวนสุดสยอง ซาราห์, พวกหนุ่มๆ และเพื่อนบ้าน มิสเตอร์ชู (เคน จอง) จะต้องร่วมมือกับเพื่อช่วยเคธีและเมืองนี้จากแผนการช ั่วร้ายของสแล็ปปี้ให้ได้ !!!

Complete name : Goosebumps.Haunted.Halloween.2018.1080p.WEB-DL.x264.AC3.THR2.0.One2loadup.com.mkv
Format : Matroska
Format version : Version 4
File size : 3.20 GiB
Duration : 1 h 29 min
Overall bit rate : 5 106 kb/s
Movie name : Goosebumps.Haunted.Halloween.2018.1080p.WEB-DL.x264.AC3.THR2.0.One2loadup.com
Encoded date : UTC 2018-12-29 13:02:36
Writing application : mkvmerge v25.0.0 (‘Prog Noir’) 64-bit
Writing library : libebml v1.3.6 + libmatroska v1.4.9
Cover : Yes
Attachments : small_cover.jpg / small_cover_land.jpg / cover.jpg / cover_land.jpg

Video
ID : 1
Format : AVC
Format/Info : Advanced Video Codec
Format profile : [email protected]
Format settings : CABAC / 5 Ref Frames
Format settings, CABAC : Yes
Format settings, ReFrames : 5 frames
Codec ID : V_MPEG4/ISO/AVC
Duration : 1 h 29 min
Bit rate : 4 528 kb/s
Width : 1 920 pixels
Height : 796 pixels
Display aspect ratio : 2.40:1
Frame rate mode : Constant
Frame rate : 23.976 (24000/1001) FPS
Color space : YUV
Chroma subsampling : 4:2:0
Bit depth : 8 bits
Scan type : Progressive
Bits/(Pixel*Frame) : 0.124
Stream size : 2.84 GiB (89%)
Title : Goosebumps.Haunted.Halloween.2018.1080p.WEB-DL.x264.AC3.THR2.0.One2loadup.com
Language : English
Default : Yes
Forced : No
Color range : Limited
Color primaries : BT.709
Transfer characteristics : BT.709
Matrix coefficients : BT.709

Audio #1
ID : 2
Format : AC-3
Format/Info : Audio Coding 3
Commercial name : Dolby Digital
Codec ID : A_AC3
Duration : 1 h 29 min
Bit rate mode : Constant
Bit rate : 192 kb/s
Channel(s) : 2 channels
Channel layout : L R
Sampling rate : 48.0 kHz
Frame rate : 31.250 FPS (1536 SPF)
Bit depth : 16 bits
Compression mode : Lossy
Delay relative to video : -42 ms
Stream size : 123 MiB (4%)
Title : Thai Rong 2.0 Modified By Scarlett98
Language : Thai
Service kind : Complete Main
Default : Yes
Forced : No

Audio #2
ID : 3
Format : AC-3
Format/Info : Audio Coding 3
Commercial name : Dolby Digital
Codec ID : A_AC3
Duration : 1 h 29 min
Bit rate mode : Constant
Bit rate : 384 kb/s
Channel(s) : 6 channels
Channel layout : L R C LFE Ls Rs
Sampling rate : 48.0 kHz
Frame rate : 31.250 FPS (1536 SPF)
Bit depth : 16 bits
Compression mode : Lossy
Delay relative to video : -42 ms
Stream size : 247 MiB (8%)
Title : English 5.1
Language : English
Service kind : Complete Main
Default : No
Forced : No

Menu
00:00:00.000 : en:1
00:04:32.439 : en:2
00:11:15.174 : en:3
00:18:42.913 : en:4
00:21:40.632 : en:5
00:27:22.348 : en:6
00:32:36.119 : en:7
00:37:47.430 : en:8
00:45:13.917 : en:9
00:50:10.712 : en:10
00:56:16.702 : en:11
01:00:34.750 : en:12
01:05:27.125 : en:13
01:09:24.110 : en:14
01:14:36.921 : en:15
01:20:28.314 : en:16

DOWNLOAD


PART01 |||| PART02 |||| PART03 |||| PART04

PART01 |||| PART02 |||| PART03 |||| PART04

PART01 |||| PART02 |||| PART03 |||| PART04

PART01 |||| PART02 |||| PART03 |||| PART04


3 Comments
  1. Boydm Lion
    Boydm Lion says

    ขอภาค 1 ด้วยซิครับ
    GOOSEBUMPS 1 (2015) คืนอัศจรรย์ขนหัวลุก

    1. Admin
      Admin says

      ได้ฮ๊ะ เพิ่มในคิวขอหนังให้นะฮ๊ะ

      1. Boydm Lion
        Boydm Lion says

        รอนะครับบบ อิอิ

Leave A Reply

Your email address will not be published.

%d bloggers like this: