[ฝรั่ง] Angel Has Fallen (2019) ผ่ายุทธการ ดับแผนอหังการ์ [1080p] [พากย์ไทยโรง 2.0 + เสียงอังกฤษ 5.1] [บรรยายอังกฤษ] [เสียงไทยโรง + ซับอังกฤษ] [PANDAFILE]

2

Angel Has Fallen (2019)

โหลดหนัง Angel Has Fallen (2019) ผ่ายุทธการ ดับแผนอหังการ์

Angel Has Fallen (2019) 2h 1min | Action, Thriller | 29 August 2019 (Germany) Summary: Mike Banning is framed for the attempted assassination of the President and must evade his own agency and the FBI as he tries to uncover the real threat.
Countries: USALanguages: English

เรื่องย่อ Angel Has Fallen (2019) ผ่ายุทธการ ดับแผนอหังการ์

เจ้าหน้าที่หน่วยสืบราชการลับ ไมค์ แบนนิ่ง (เจอราร์ด บัตเลอร์) กลับมาทำหน้าที่คุ้มกันประธานาธิบดีสหรัฐอเมริกาเช่นเคย แต่จู่ ๆ กลับมีเหตุร้ายที่ไม่ฆ่าคิดเกิดขึ้นทำให้สมาชิกร่วมหน่วยของเขาเสียชีวิตทั้งหมด ซ้ำร้ายไมค์ยังโดนจับกุมด้วยข้อหาพยายามลอบสังหารประ ธานธิบดีเนื่องจากมีชีวิตรอดมาแค่คนเดียวและนั่นคือสาเหตุที่ทำให้ไมค์ต้องเผชิญหน้ากับหน่วยร าชการลับของเขาเพื่อหาหนอนบ่อนไส้และต้นตอผู้ใส่ร้ายป้ายสีเขาให้ได ้!!!

Complete name : Angel.Has.Fallen.2019.1080p.WEB-DL.AC3.x264.THR2.0.One2loadup.com.mkv
Format : Matroska
Format version : Version 4
File size : 4.08 GiB
Duration : 2 h 1 min
Overall bit rate : 4 822 kb/s
Movie name : Angel.Has.Fallen.2019.1080p.WEB-DL.AC3.x264.THR2.0.One2loadup.com
Encoded date : UTC 2019-11-13 11:24:34
Writing application : mkvmerge v25.0.0 (‘Prog Noir’) 64-bit
Writing library : libebml v1.3.6 + libmatroska v1.4.9
Cover : Yes
Attachments : small_cover_land.jpg / cover.jpg / cover_land.jpg / small_cover.jpg

Video
ID : 1
Format : AVC
Format/Info : Advanced Video Codec
Format profile : [email protected]
Format settings : CABAC / 5 Ref Frames
Format settings, CABAC : Yes
Format settings, ReFrames : 5 frames
Codec ID : V_MPEG4/ISO/AVC
Duration : 2 h 1 min
Bit rate : 4 243 kb/s
Width : 1 920 pixels
Height : 800 pixels
Display aspect ratio : 2.40:1
Frame rate mode : Constant
Frame rate : 23.976 (23976/1000) FPS
Color space : YUV
Chroma subsampling : 4:2:0
Bit depth : 8 bits
Scan type : Progressive
Bits/(Pixel*Frame) : 0.115
Stream size : 3.59 GiB (88%)
Title : Angel.Has.Fallen.2019.1080p.WEB-DL.AC3.x264.THR2.0.One2loadup.com
Language : English
Default : Yes
Forced : No
Color range : Limited
Color primaries : BT.709
Transfer characteristics : BT.709
Matrix coefficients : BT.709

Audio #1
ID : 2
Format : AC-3
Format/Info : Audio Coding 3
Commercial name : Dolby Digital
Codec ID : A_AC3
Duration : 2 h 1 min
Bit rate mode : Constant
Bit rate : 192 kb/s
Channel(s) : 2 channels
Channel layout : L R
Sampling rate : 48.0 kHz
Frame rate : 31.250 FPS (1536 SPF)
Bit depth : 16 bits
Compression mode : Lossy
Delay relative to video : -42 ms
Stream size : 166 MiB (4%)
Title : Thai Rong 2.0 Modified @192 Kbps
Service kind : Complete Main
Default : Yes
Forced : No

Audio #2
ID : 3
Format : AC-3
Format/Info : Audio Coding 3
Commercial name : Dolby Digital
Codec ID : A_AC3
Duration : 2 h 1 min
Bit rate mode : Constant
Bit rate : 384 kb/s
Channel(s) : 6 channels
Channel layout : L R C LFE Ls Rs
Sampling rate : 48.0 kHz
Frame rate : 31.250 FPS (1536 SPF)
Bit depth : 16 bits
Compression mode : Lossy
Delay relative to video : -42 ms
Stream size : 332 MiB (8%)
Title : English 5.1 @384 Kbps
Language : English
Service kind : Complete Main
Default : No
Forced : No

Text
ID : 4
Format : UTF-8
Codec ID : S_TEXT/UTF8
Codec ID/Info : UTF-8 Plain Text
Duration : 1 h 52 min
Bit rate : 85 b/s
Count of elements : 1580
Stream size : 70.8 KiB (0%)
Title : English Sub
Language : English
Default : Yes
Forced : No

Menu
00:00:00.000 : en:1
00:01:32.000 : en:2
00:11:33.000 : en:3
00:23:14.000 : en:4
00:32:30.000 : en:5
00:41:02.000 : en:6
00:50:57.000 : en:7
01:03:06.000 : en:8
01:12:09.000 : en:9
01:19:34.000 : en:10
01:30:46.000 : en:11
01:39:41.000 : en:12
01:53:09.000 : en:13

DOWNLOAD


PART01 |||| PART02 |||| PART03 |||| PART04 |||| PART05

PART01 |||| PART02 |||| PART03 |||| PART04 |||| PART05

PART01 |||| PART02 |||| PART03 |||| PART04 |||| PART05

PART01 |||| PART02 |||| PART03 |||| PART04 |||| PART05


2 Comments
  1. Inwat Onlyone
    Inwat Onlyone says

    หนังมัน สนุกมาก ขอบคุณครับ

    1. Admin
      Admin says

      ^^

Leave A Reply

Your email address will not be published.

%d bloggers like this: