เว็บโหลดหนัง HD MINI-HD SUPER-HQ Full-HD 1080p One2up VIP Master Zoom ซูม หนังใหม่ ออนไลน์ มาสเตอร์ ไทย จีน ฝรั่ง การ์ตูน

[จีน] China Salesman (2018) คู่ระห่ำ เดือดกระแทกเดือด [1080p] [พากย์ไทยโรง 2.0 + เสียงอังกฤษ 5.1] [บรรยายอังกฤษ] [เสียงไทยโรง]

0

โหลดหนัง  China Salesman (2018) คู่ระห่ำ เดือดกระแทกเดือด

เรื่องย่อ China Salesman (2018) คู่ระห่ำ เดือดกระแทกเดือด

อดีตราชากำปั้นฉายาไอ้มฤตยูดำ ไมค์ ไทสัน โคจรมาเจอกับดาราจอมหักกระดูก สตีเวน ซีกัล เรื่องราวที่นำมาจากเคล้าโครงจากเรื่องจริงของบริษัท โทรคมนาคม 2 รายจากยุโรปและจีน วิศวกรหนุ่มชาวจีนชาวจีนผู้อาสาที่จะเดินทางไปยังแอฟ ริกาเหนือ และช่วยบริษัทที่เขาทำงานเพื่อชิงชนะเลิศ ผู้ชนะจะสามารถเป็นเจ้าของสิทธิ์ในการควบคุมการสื่อสารระหว่างภาคใต้และภาคเหนือ การวางแผนที่ต้องเข้าไปประมูลการวางระบบเครือข่ายโทร คมนาคมในดินแดนที่เพิ่งจะสงบจากไฟสงครามอย่างแอฟริกา แต่แล้วก็มีผู้ไม่หวังดีวางแผนจะทำลายระบบนี้ และต้องการเคลื่อนย้ายกำลังทหารกลับมา เพื่อก่อไฟในกาฬทวีปอีกครั้ง หากก้างชิ้นโตของพวกเขา คือเซลล์แมนชาวจีนที่ต้องฝ่าดงระเบิดเข้าไปกู้ระบบให ้กลับมาทำงานให้ได้ เรื่องราวภารกิจที่ต้องผจญภัยฝ่าดงปืน และระเบิดคงจะไม่จบลงง่ายๆ อย่างแน่นอน คอหนังแนวแอคชั่นระเบิดภูเขาเผากระท่อม ต้องไม่พลาด

Complete name : China.Salesman.2018.1080p.WEB-DL.DD5.1.H264.One2loadup.com.mkv
Format : Matroska
Format version : Version 4 / Version 2
File size : 3.88 GiB
Duration : 1 h 50 min
Overall bit rate : 5 042 kb/s
Movie name : China.Salesman.2018.1080p.WEB-DL.DD5.1.H264.One2loadup.com
Encoded date : UTC 2018-06-01 17:29:02
Writing application : mkvmerge v23.0.0 (‘The Bride Said No’) 64-bit
Writing library : libebml v1.3.6 + libmatroska v1.4.9
Cover : Yes
Attachments : small_cover.jpg / small_cover_land.jpg / cover.jpg / cover_land.jpg

Video
ID : 1
Format : AVC
Format/Info : Advanced Video Codec
Format profile : [email protected]
Format settings : CABAC / 5 Ref Frames
Format settings, CABAC : Yes
Format settings, ReFrames : 5 frames
Codec ID : V_MPEG4/ISO/AVC
Duration : 1 h 50 min
Bit rate : 4 527 kb/s
Width : 1 920 pixels
Height : 804 pixels
Display aspect ratio : 2.40:1
Frame rate mode : Constant
Frame rate : 24.000 FPS
Color space : YUV
Chroma subsampling : 4:2:0
Bit depth : 8 bits
Scan type : Progressive
Bits/(Pixel*Frame) : 0.122
Stream size : 3.49 GiB (90%)
Title : China.Salesman.2018.1080p.WEB-DL.DD5.1.H264.One2loadup.com
Language : English
Default : Yes
Forced : No
Color range : Limited
Color primaries : BT.709
Transfer characteristics : BT.709
Matrix coefficients : BT.709

Audio #1
ID : 2
Format : AAC
Format/Info : Advanced Audio Codec
Format profile : LC
Codec ID : A_AAC-2
Duration : 1 h 50 min
Bit rate : 128 kb/s
Channel(s) : 2 channels
Channel positions : Front: L R
Sampling rate : 48.0 kHz
Frame rate : 46.875 FPS (1024 SPF)
Compression mode : Lossy
Delay relative to video : -42 ms
Stream size : 101 MiB (3%)
Title : Thai Rong 2.0
Language : Thai
Default : Yes
Forced : No

Audio #2
ID : 3
Format : AC-3
Format/Info : Audio Coding 3
Codec ID : A_AC3
Duration : 1 h 50 min
Bit rate mode : Constant
Bit rate : 384 kb/s
Channel(s) : 6 channels
Channel positions : Front: L C R, Side: L R, LFE
Sampling rate : 48.0 kHz
Frame rate : 31.250 FPS (1536 SPF)
Bit depth : 16 bits
Compression mode : Lossy
Delay relative to video : -42 ms
Stream size : 303 MiB (8%)
Title : English 5.1
Language : English
Service kind : Complete Main
Default : No
Forced : No

Text
ID : 4
Format : UTF-8
Codec ID : S_TEXT/UTF8
Codec ID/Info : UTF-8 Plain Text
Duration : 1 h 43 min
Bit rate : 46 b/s
Count of elements : 927
Stream size : 35.0 KiB (0%)
Title : English
Language : English
Default : Yes
Forced : No

Menu
00:00:00.000 : en:1
00:15:00.000 : en:2
00:30:00.000 : en:3
00:45:00.000 : en:4
01:00:00.000 : en:5
01:15:00.000 : en:6
01:30:00.000 : en:7
01:45:23.000 : en:8

DOWNLOAD


PART01 |||| PART02 |||| PART03 |||| PART04

PART01 |||| PART02 |||| PART03 |||| PART04

PART01 |||| PART02 |||| PART03 |||| PART04

PART01 |||| PART02 |||| PART03 |||| PART04


Leave A Reply

Your email address will not be published.

%d bloggers like this: