[ZOOM] Men in Black: International (2019) หน่วยจารชนสากลพิทักษ์โลก [1080p] [พากย์ไทยโรง 2.0] [ซูมเกือบชัด] [เสียงไทยโรง] [OPENLOAD]

0

โหลดหนัง Men in Black: International (2019) หน่วยจารชนสากลพิทักษ์โลก

Men in Black: International (2019) 1h 54min | Action, Adventure, Comedy | 14 June 2019 (Canada) Summary: The Men in Black have always protected the Earth from the scum of the universe. In this new adventure, they tackle their biggest threat to date: a mole in the Men in Black organization.
Countries: USALanguages: English, French

เรื่องย่อ Men in Black: International (2019) หน่วยจารชนสากลพิทักษ์โลก

หนังไซไฟคอเมดี้เรื่องนี้ได้ Chris Hemsworth และ Tessa Thompson นักแสดงคู่หูจาก Thor: Ragnarok กลับมาร่วมงานกันอีกครั้งในบท เจ้าหน้าที่ H และ M โดยเรื่องราวจะเป็นการแก้ไขคดีฆาตกรรมลึกลับที่ส่งผล กระทบไปทั่วโลก และมีความเกี่ยวพันกับเหล่าเอเลี่ยนที่อาศัยอยู่บนโลกด้วย ในภาคนี้นักแสดงหลักอย่างภาคก่อนอย่าง Tommy Lee Jones และ Will Smith จะไม่กลับมา แต่ทั้งคู่ก็ยังอยู่ในจักรวาลเดียวกันกับหนังเรื่องนี้โดยหากเราสังเกตดีๆในตัวอย่างเราจะเห็นรูปภาพของพวกเขาอยู่ด้วย!!!

Complete name : [Zoom]_Men.In.Black.International.2019.1080p.HC-TC.AC3.2.0.THR.One2loadup.com.mkv
Format : Matroska
Format version : Version 4
File size : 3.06 GiB
Duration : 1 h 44 min
Overall bit rate mode : Variable
Overall bit rate : 4 187 kb/s
Movie name : [Zoom]_Men.In.Black.International.2019.1080p.HC-TC.AC3.2.0.THR.One2loadup.com
Encoded date : UTC 2019-06-28 01:44:05
Writing application : mkvmerge v34.0.0 (‘Sight and Seen’) 64-bit
Writing library : libebml v1.3.7 + libmatroska v1.5.0

Video
ID : 1
Format : AVC
Format/Info : Advanced Video Codec
Format profile : [email protected]
Format settings : CABAC / 2 Ref Frames
Format settings, CABAC : Yes
Format settings, ReFrames : 2 frames
Format settings, GOP : M=1, N=24
Codec ID : V_MPEG4/ISO/AVC
Duration : 1 h 44 min
Bit rate mode : Variable
Bit rate : 3 993 kb/s
Maximum bit rate : 6 046 kb/s
Width : 1 920 pixels
Height : 1 080 pixels
Display aspect ratio : 16:9
Frame rate mode : Constant
Frame rate : 24.000 FPS
Color space : YUV
Chroma subsampling : 4:2:0
Bit depth : 8 bits
Scan type : Progressive
Bits/(Pixel*Frame) : 0.080
Stream size : 2.92 GiB (95%)
Title : [Zoom]_Men.In.Black.International.2019.1080p.HC-TC.AC3.2.0.THR.One2loadup.com
Default : Yes
Forced : No
Color primaries : BT.709
Transfer characteristics : BT.709
Matrix coefficients : BT.709

Audio
ID : 2
Format : AC-3
Format/Info : Audio Coding 3
Commercial name : Dolby Digital
Codec ID : A_AC3
Duration : 1 h 44 min
Bit rate mode : Constant
Bit rate : 192 kb/s
Channel(s) : 2 channels
Channel layout : L R
Sampling rate : 48.0 kHz
Frame rate : 31.250 FPS (1536 SPF)
Bit depth : 16 bits
Compression mode : Lossy
Stream size : 144 MiB (5%)
Language : Thai
Service kind : Complete Main
Default : Yes
Forced : No

DOWNLOAD


PART01 |||| PART02 |||| PART03 |||| PART04

PART01 |||| PART02 |||| PART03 |||| PART04

PART01 |||| PART02 |||| PART03 |||| PART04

PART01 |||| PART02 |||| PART03 |||| PART04


Leave A Reply

Your email address will not be published.

%d bloggers like this: