[Zoom] Joker (2019) โจ๊กเกอร์ [720p] [พากย์ไทยโรง 2.0 + เสียงอังกฤษ 2.0] [ภาพไม่ค่อยชัด] [เสียงไทยโรง] [OPENLOAD]

0

Joker (2019) โจ๊กเกอร์

โหลดหนัง Joker (2019) โจ๊กเกอร์

Joker (2019) 2h 2min | Crime, Drama, Thriller | 10 October 2019 (Germany) Summary: In Gotham City, mentally-troubled comedian Arthur Fleck is disregarded and mistreated by society. He then embarks on a downward spiral of revolution and bloody crime. This path brings him face-to-face with his alter-ego: "The Joker".
Countries: USA, CanadaLanguages: English

เรื่องย่อ Joker (2019) โจ๊กเกอร์

oker ผลงานเรื่องราวจุดเริ่มต้นของ “Joker” จากผู้กำกับฯ ทอดด์ ฟิลลิปส์ ที่จะพาไปรู้จักกับโลกของอาร์เธอร์ เฟลค โดยมีการถ่ายทอดการแสดงไว้อย่างน่าประทับใจโดยวาคิน ฟีนิกซ์ อาร์เธอร์เป็นชายคนหนึ่งที่ต้องเผชิญหน้ากับความโหดร้ายทารุณและสังคมที่เต็มไปด้วยการเหยียดหยาม เขาต้องเผชิญกับความอ้างว้างจนเปลี่ยนเขาจากที่เป็นคนอ่อนแอกลายเป็นคนโหดเหี้ยม เขารับจ้างแต่งชุดตัวตลกรายวันจนกระทั่งคืนหนึ่งที่เขาพยายามจะแสดงตลกเดี่ยว แต่กลับพบว่าตัวเองต่างหากที่เป็นเรื่องตลก เขาไม่เป็นตัวของตัวเองเวลาที่มีผู้คนอยู่รายล้อม ซึ่งเห็นได้จากเสียงหัวเราะที่ควบคุมไม่ได้และดูไม่เหมาะสม ยิ่งเขาพยายามควบคุมเท่าไหร่มันก็ยิ่งแสดงออกมามากขึ้น จนทำให้เขาแสดงความเยาะเย้ยและความรุนแรงออกมา อาร์เธอร์ทุ่มเทเวลาไปกับการดูแลแม่ที่ไม่ค่อยแข็งแรง และไขว่คว้าตามหาคนที่เหมาะจะเป็นพ่อซึ่งเขาไม่เคยมี มาก่อน ตั้งแต่นักธุรกิจมหาเศรษฐี โธมัส เวย์น ไปจนถึงพิธีกรรายการทีวีเมอร์เรย์ แฟรงค์ลิน เขาพบว่าตัวเองอยู่ปลายทางระหว่างโลกแห่งความจริงกับ ความบ้าคลั่ง การตัดสินใจที่ผิดพลาดเพียงครั้งเดียวกลายเป็นชนวนเหตุที่นำไปสู่เหตุการณ์รุนแรงมากมาย

Complete name : [Zoom]_Joker.2019.720p.HD-TS.THR2.0.×264.One2loadup.com.mkv
Format : Matroska
Format version : Version 4
File size : 2.90 GiB
Duration : 1 h 54 min
Overall bit rate mode : Variable
Overall bit rate : 3 611 kb/s
Movie name : [Zoom]_Joker.2019.720p.HD-TS.THR2.0.×264.One2loadup.com
Encoded date : UTC 2019-10-29 19:45:14
Writing application : mkvmerge v9.9.0 (‘Pick Up’) 64bit
Writing library : libebml v1.3.4 + libmatroska v1.4.5

Video
ID : 1
Format : AVC
Format/Info : Advanced Video Codec
Format profile : [email protected]
Format settings : CABAC / 5 Ref Frames
Format settings, CABAC : Yes
Format settings, ReFrames : 5 frames
Codec ID : V_MPEG4/ISO/AVC
Duration : 1 h 54 min
Bit rate mode : Variable
Bit rate : 3 000 kb/s
Maximum bit rate : 18.4 Mb/s
Width : 1 280 pixels
Height : 660 pixels
Display aspect ratio : 1.939
Frame rate mode : Constant
Frame rate : 30.000 FPS
Standard : Component
Color space : YUV
Chroma subsampling : 4:2:0
Bit depth : 8 bits
Scan type : Progressive
Bits/(Pixel*Frame) : 0.118
Stream size : 2.41 GiB (83%)
Title : [Zoom]_Joker.2019.720p.HD-TS.THR2.0.×264.One2loadup.com
Writing library : x264 core 155
Encoding settings : cabac=1 / ref=5 / deblock=1:0:0 / analyse=0x3:0x113 / me=hex / subme=7 / psy=1 / psy_rd=1.00:0.00 / mixed_ref=1 / me_range=16 / chroma_me=1 / trellis=1 / 8x8dct=1 / cqm=1 / deadzone=21,11 / fast_pskip=1 / chroma_qp_offset=-2 / threads=21 / lookahead_threads=3 / sliced_threads=0 / slices=1 / nr=0 / decimate=1 / interlaced=0 / minigop=0 / stitchable=1 / constrained_intra=0 / bframes=3 / b_pyramid=0 / b_adapt=1 / b_bias=0 / direct=1 / weightb=1 / open_gop=1 / weightp=2 / keyint=250 / keyint_min=25 / scenecut=40 / intra_refresh=0 / rc_lookahead=40 / rc=2pass / mbtree=1 / bitrate=3000 / ratetol=1.0 / qcomp=0.60 / qpmin=3 / qpmax=69 / qpstep=4 / cplxblur=20.0 / qblur=0.5 / vbv_maxrate=18400 / vbv_bufsize=18400 / nal_hrd=vbr / filler=0 / ip_ratio=1.40 / aq=1:1.00
Language : English
Default : Yes
Forced : No
Color range : Limited
Color primaries : BT.709
Transfer characteristics : BT.709
Matrix coefficients : BT.709

Audio #1
ID : 2
Format : AC-3
Format/Info : Audio Coding 3
Commercial name : Dolby Digital
Codec ID : A_AC3
Duration : 1 h 54 min
Bit rate mode : Constant
Bit rate : 384 kb/s
Channel(s) : 2 channels
Channel layout : L R
Sampling rate : 48.0 kHz
Frame rate : 31.250 FPS (1536 SPF)
Bit depth : 16 bits
Compression mode : Lossy
Stream size : 316 MiB (11%)
Title : ThaiRong 2.0 @ 384 kb/s By Mr.Captain
Language : Thai
Service kind : Complete Main
Default : Yes
Forced : Yes

Audio #2
ID : 3
Format : AC-3
Format/Info : Audio Coding 3
Commercial name : Dolby Digital
Codec ID : A_AC3
Duration : 1 h 54 min
Bit rate mode : Constant
Bit rate : 224 kb/s
Channel(s) : 2 channels
Channel layout : L R
Sampling rate : 48.0 kHz
Frame rate : 31.250 FPS (1536 SPF)
Bit depth : 16 bits
Compression mode : Lossy
Stream size : 184 MiB (6%)
Title : English 2.0 @ 24 kb/s
Language : English
Service kind : Complete Main
Default : No
Forced : No

DOWNLOAD


PART01 |||| PART02 |||| PART03

PART01 |||| PART02 |||| PART03

PART01 |||| PART02 |||| PART03

PART01 |||| PART02 |||| PART03


Leave A Reply

Your email address will not be published.

%d bloggers like this: