[MINI Super-HQ] The Misfits (2021) พยัคฆ์ทรชน ปล้นพลิกโลก [1080p] [พากย์อังกฤษ 5.1] [Soundtrack บรรยายไทย + อังกฤษ] [เสียงอังกฤษ + ซับไทย] [DOSYAUPLOAD]

0

โหลดหนัง The Misfits (2021) พยัคฆ์ทรชน ปล้นพลิกโลก

The Misfits (2021) 94min | Action, Adventure, Thriller | 11 June 2021 (USA)
Summary: After being recruited by a group of unconventional thieves, renowned criminal Richard Pace finds himself caught up in an elaborate gold heist that promises to have far-reaching implications on his life and the lives of countless others.
Countries: USALanguages: English

เรื่องย่อ The Misfits (2021) พยัคฆ์ทรชน ปล้นพลิกโลก

เรื่องราวของกลุ่ม โรบิน ฮู้ดส์ ยุคใหม่ที่รู้จักกันในนาม The Misfits ที่นำโดย ริชาร์ด เพซ (เพียร์ซ บรอสแนน) หัวขโมยชื่อดังที่ออกมานำทีมปล้นครั้งใหญ่แห่งศตวรรษโดยมีเป้าหมายเป็นทองคำแท่งที่ซ่อนอยู่ใต้เรือนจำที่ปลอดภัยที่สุดแห่งหนึ่งของโลก

Complete name : [MINI Super-HQ]_The.Misfits.2021.1080p.AMZN.WEB-DL.EAC3.x264.Subthai.One2loadup.com.mkv
Format : Matroska
Format version : Version 4
File size : 4.19 GiB
Duration : 1 h 34 min
Overall bit rate : 6 360 kb/s
Movie name : [MINI Super-HQ]_The.Misfits.2021.1080p.AMZN.WEB-DL.EAC3.x264.Subthai.One2loadup.com
Encoded date : UTC 2021-06-15 14:35:21
Writing application : mkvmerge v58.0.0 (‘Supper’s Ready’) 64-bit
Writing library : libebml v1.4.2 + libmatroska v1.6.4

Video
ID : 1
Format : AVC
Format/Info : Advanced Video Codec
Format profile : [email protected]
Format settings : CABAC / 3 Ref Frames
Format settings, CABAC : Yes
Format settings, Reference : 3 frames
Codec ID : V_MPEG4/ISO/AVC
Duration : 1 h 34 min
Bit rate : 5 693 kb/s
Width : 1 920 pixels
Height : 800 pixels
Display aspect ratio : 2.40:1
Frame rate mode : Constant
Frame rate : 23.976 (24000/1001) FPS
Color space : YUV
Chroma subsampling : 4:2:0
Bit depth : 8 bits
Scan type : Progressive
Bits/(Pixel*Frame) : 0.155
Stream size : 3.75 GiB (90%)
Title : [MINI Super-HQ]_The.Misfits.2021.1080p.AMZN.WEB-DL.EAC3.x264.Subthai.One2loadup.com
Language : English
Default : Yes
Forced : No
Color range : Limited
Color primaries : BT.709
Transfer characteristics : BT.709
Matrix coefficients : BT.709

Audio
ID : 2
Format : E-AC-3
Format/Info : Enhanced AC-3
Commercial name : Dolby Digital Plus
Codec ID : A_EAC3
Duration : 1 h 34 min
Bit rate mode : Constant
Bit rate : 640 kb/s
Channel(s) : 6 channels
Channel layout : L R C LFE Ls Rs
Sampling rate : 48.0 kHz
Frame rate : 31.250 FPS (1536 SPF)
Compression mode : Lossy
Stream size : 432 MiB (10%)
Title : E-AC3 English
Language : English
Service kind : Complete Main
Default : Yes
Forced : No

Text #1
ID : 3
Format : VobSub
Muxing mode : zlib
Codec ID : S_VOBSUB
Codec ID/Info : Picture based subtitle format used on DVDs
Duration : 1 h 26 min
Bit rate : 14.2 kb/s
Count of elements : 1083
Stream size : 8.84 MiB (0%)
Title : Sub Thai 1080p
Language : Thai
Default : No
Forced : No

Text #2
ID : 4
Format : UTF-8
Codec ID : S_TEXT/UTF8
Codec ID/Info : UTF-8 Plain Text
Duration : 1 h 26 min
Bit rate : 146 b/s
Count of elements : 1081
Stream size : 93.2 KiB (0%)
Title : Sub Thai SRT
Language : Thai
Default : No
Forced : No

Text #3
ID : 5
Format : PGS
Muxing mode : zlib
Codec ID : S_HDMV/PGS
Codec ID/Info : Picture based subtitle format used on BDs/HD-DVDs
Duration : 1 h 26 min
Bit rate : 39.1 kb/s
Count of elements : 2166
Stream size : 24.3 MiB (1%)
Title : Sub Thai PGS
Language : Thai
Default : Yes
Forced : No

Text #4
ID : 6
Format : UTF-8
Codec ID : S_TEXT/UTF8
Codec ID/Info : UTF-8 Plain Text
Duration : 1 h 26 min
Bit rate : 64 b/s
Count of elements : 1103
Stream size : 41.1 KiB (0%)
Title : Sub English SRT
Language : English
Default : No
Forced : No

Cornfile ลบไฟล์ทิ้งทั้งหมดแล้ว ยกเลิกอัพCornfile has deleted all files. cancel upload


PART01 |||| PART02 |||| PART03 |||| PART04 |||| PART05

PART01 |||| PART02 |||| PART03 |||| PART04 |||| PART05

PART01 |||| PART02 |||| PART03 |||| PART04 |||| PART05

PART01 |||| PART02 |||| PART03 |||| PART04 |||| PART05

PART01 |||| PART02 |||| PART03 |||| PART04 |||| PART05


Leave A Reply

อีเมล์ของคุณจะไม่แสดงให้เห็น Your email address will not be published.

%d bloggers like this: