[ฝรั่ง] The Enforcer (2022) เอ็นฟอสเซอร์ [1080p] [พากย์อังกฤษ 5.1] [Soundtrack บรรยายไทย + อังกฤษ] [เสียงอังกฤษ + ซับไทย] [USERLOAD]

0

โหลดหนัง The Enforcer (2022) เอ็นฟอสเซอร์

The Enforcer | 2022 (United States) Summary: An enforcer has to sacrifice everything to save a young girl he has befriended from his femme fatale boss who is involved in cybersex trafficking.
Countries: United StatesLanguages: English, Spanish

เรื่องย่อ The Enforcer (2022) เอ็นฟอสเซอร์

ผู้บังคับคดีต้องเสียสละทุกอย่างเพื่อช่วยเด็กสาวที่ เขาเป็นเพื่อนกับหัวหน้าสาวที่เสียชีวิตซึ่งเกี่ยวข้องกับการค้ามนุษย์ทางไซเบอร์

Complete name : The.Enforcer.2022.1080p.WEB-DL.EAC3.x264.Subthai.One2loadup.com.mkv
Format : Matroska
Format version : Version 4
File size : 4.14 GiB
Duration : 1 h 30 min
Overall bit rate : 6 537 kb/s
Movie name : The.Enforcer.2022.1080p.WEB-DL.EAC3.x264.Subthai.One2loadup.com
Encoded date : UTC 2022-10-18 11:53:39
Writing application : mkvmerge v55.0.0 (‘Waiting For Space’) 64-bit
Writing library : libebml v1.4.2 + libmatroska v1.6.4

Video
ID : 1
Format : AVC
Format/Info : Advanced Video Codec
Format profile : [email protected]
Format settings : CABAC / 3 Ref Frames
Format settings, CABAC : Yes
Format settings, Reference : 3 frames
Codec ID : V_MPEG4/ISO/AVC
Duration : 1 h 30 min
Bit rate : 6 136 kb/s
Width : 1 920 pixels
Height : 806 pixels
Display aspect ratio : 2.40:1
Frame rate mode : Constant
Frame rate : 23.976 (24000/1001) FPS
Color space : YUV
Chroma subsampling : 4:2:0
Bit depth : 8 bits
Scan type : Progressive
Bits/(Pixel*Frame) : 0.165
Stream size : 3.88 GiB (94%)
Title : The.Enforcer.2022.1080p.WEB-DL.EAC3.x264.Subthai.One2loadup.com
Language : English
Default : Yes
Forced : No
Color range : Limited
Color primaries : BT.709
Transfer characteristics : BT.709
Matrix coefficients : BT.709

Audio
ID : 2
Format : E-AC-3
Format/Info : Enhanced AC-3
Commercial name : Dolby Digital Plus
Codec ID : A_EAC3
Duration : 1 h 30 min
Bit rate mode : Constant
Bit rate : 384 kb/s
Channel(s) : 6 channels
Channel layout : L R C LFE Ls Rs
Sampling rate : 48.0 kHz
Frame rate : 31.250 FPS (1536 SPF)
Compression mode : Lossy
Stream size : 249 MiB (6%)
Title : E-AC3 English
Language : English
Service kind : Complete Main
Default : Yes
Forced : No

Text #1
ID : 3
Format : VobSub
Muxing mode : zlib
Codec ID : S_VOBSUB
Codec ID/Info : Picture based subtitle format used on DVDs
Duration : 1 h 22 min
Bit rate : 8 037 b/s
Count of elements : 911
Stream size : 4.76 MiB (0%)
Title : Sub Thai 1080p
Language : Thai
Default : No
Forced : No

Text #2
ID : 4
Format : UTF-8
Codec ID : S_TEXT/UTF8
Codec ID/Info : UTF-8 Plain Text
Duration : 1 h 22 min
Bit rate : 83 b/s
Count of elements : 911
Stream size : 50.4 KiB (0%)
Title : Sub Thai SRT
Language : Thai
Default : No
Forced : No

Text #3
ID : 5
Format : PGS
Muxing mode : zlib
Codec ID : S_HDMV/PGS
Codec ID/Info : Picture based subtitle format used on BDs/HD-DVDs
Duration : 1 h 22 min
Bit rate : 25.3 kb/s
Count of elements : 1822
Stream size : 15.0 MiB (0%)
Title : Sub Thai PGS
Language : Thai
Default : Yes
Forced : No

Text #4
ID : 6
Format : UTF-8
Codec ID : S_TEXT/UTF8
Codec ID/Info : UTF-8 Plain Text
Duration : 1 h 24 min
Bit rate : 50 b/s
Count of elements : 1114
Stream size : 31.0 KiB (0%)
Title : Sub English SRT
Language : English
Default : No
Forced : No

Menu
00:00:00.000 : en:Chapter 01
00:05:28.578 : en:Chapter 02
00:11:22.015 : en:Chapter 03
00:15:29.429 : en:Chapter 04
00:20:22.263 : en:Chapter 05
00:25:28.862 : en:Chapter 06
00:29:52.375 : en:Chapter 07
00:36:20.263 : en:Chapter 08
00:41:10.387 : en:Chapter 09
00:46:31.583 : en:Chapter 10
00:51:04.272 : en:Chapter 11
00:59:33.365 : en:Chapter 12
01:05:02.819 : en:Chapter 13
01:10:12.128 : en:Chapter 14
01:16:57.242 : en:Chapter 15

DOWNLOAD


PART01 |||| PART02 |||| PART03 |||| PART04 |||| PART05

PART01 |||| PART02 |||| PART03 |||| PART04 |||| PART05

PART01 |||| PART02 |||| PART03 |||| PART04 |||| PART05

PART01 |||| PART02 |||| PART03 |||| PART04 |||| PART05

PART01 |||| PART02 |||| PART03 |||| PART04 |||| PART05


Leave A Reply

อีเมล์ของคุณจะไม่แสดงให้เห็น Your email address will not be published.

%d bloggers like this: