[ฝรั่ง] I Am Mother (2019) [1080p] [พากย์อังกฤษ 5.1] [Soundtrack บรรยายไทย + อังกฤษ] [เสียงอังกฤษ + ซับไทย] [OPENLOAD]

0

โหลดหนัง I Am Mother (2019)

I Am Mother (2019) 1h 53min | Drama, Horror, Sci-Fi | 18 July 2019 (Australia) Summary: A teenage girl is raised underground by a kindly robot "Mother" -- designed to repopulate the earth following the extinction of mankind. But their unique bond is threatened when an inexplicable stranger arrives with alarming news.
Countries: AustraliaLanguages: English

เรื่องย่อ I Am Mother (2019)

ว่าด้วยเรื่องราวของเด็กสาววัยรุ่น ดอว์เทอร์ เป็นมนุษย์รุ่นแรกที่ถูกเลี้ยงขึ้นมาในศูนย์หลบภัยใต ้ดิน กับ มาเธอร์ หุ่นยนต์รูปร่างมนุษย์ที่ได้รับการพัฒนาขึ้นเพื่อทำห น้าที่เพาะพันธุ์มนุษย์หลังวิกฤติสูญพันธุ์แต่ความสัมพันธ์ระหว่างแม่กับลูกคู่นี้ต้องสั่นคลอนเ มื่อมีหญิงปริศนาเลือดโชกมาเคาะประตูขอความช่วยเหลือ หญิงแปลกหน้าผู้นี้ทำให้ความเชื่อของดอว์เทอร์ที่มีต ่อโลกภายนอกเปลี่ยนไป การเริ่มต้นค้นหาความจริงครั้งยิ่งใหญ่จึงเริ่มต้นขึ ้น

Complete name : I.Am.Mother.2019.1080p.NF.WEB-DL.DDP5.1.×264.Subthai.One2loadup.com.mkv
Format : Matroska
Format version : Version 4
File size : 5.10 GiB
Duration : 1 h 53 min
Overall bit rate mode : Variable
Overall bit rate : 6 434 kb/s
Movie name : I.Am.Mother.2019.1080p.NF.WEB-DL.DDP5.1.×264.Subthai.One2loadup.com
Encoded date : UTC 2019-06-07 08:57:39
Writing application : mkvmerge v34.0.0 (‘Sight and Seen’) 64-bit
Writing library : libebml v1.3.7 + libmatroska v1.5.0

Video
ID : 1
Format : AVC
Format/Info : Advanced Video Codec
Format profile : [email protected]
Format settings : CABAC / 3 Ref Frames
Format settings, CABAC : Yes
Format settings, ReFrames : 3 frames
Codec ID : V_MPEG4/ISO/AVC
Duration : 1 h 53 min
Bit rate mode : Variable
Bit rate : 5 800 kb/s
Maximum bit rate : 8 700 kb/s
Width : 1 920 pixels
Height : 1 080 pixels
Display aspect ratio : 16:9
Frame rate mode : Constant
Frame rate : 24.000 FPS
Color space : YUV
Chroma subsampling : 4:2:0
Bit depth : 8 bits
Scan type : Progressive
Bits/(Pixel*Frame) : 0.117
Stream size : 4.56 GiB (89%)
Title : I.Am.Mother.2019.1080p.NF.WEB-DL.DDP5.1.×264.Subthai.One2loadup.com
Writing library : x264 core 148 r2715 7e75228
Encoding settings : cabac=1 / ref=3 / deblock=1:0:0 / analyse=0x1:0x111 / me=umh / subme=10 / psy=1 / psy_rd=1.00:0.00 / mixed_ref=1 / me_range=24 / chroma_me=1 / trellis=2 / 8x8dct=0 / cqm=0 / deadzone=21,11 / fast_pskip=1 / chroma_qp_offset=-2 / threads=6 / lookahead_threads=1 / sliced_threads=0 / nr=0 / decimate=1 / interlaced=0 / bluray_compat=0 / stitchable=1 / constrained_intra=0 / bframes=2 / b_pyramid=0 / b_adapt=2 / b_bias=0 / direct=3 / weightb=1 / open_gop=0 / weightp=2 / keyint=250 / keyint_min=24 / scenecut=0 / intra_refresh=0 / rc_lookahead=48 / rc=2pass / mbtree=1 / bitrate=5800 / ratetol=1.0 / qcomp=0.50 / qpmin=6 / qpmax=51 / qpstep=4 / cplxblur=20.0 / qblur=0.5 / vbv_maxrate=8700 / vbv_bufsize=11600 / nal_hrd=vbr / filler=0 / ip_ratio=1.40 / aq=1:1.00
Default : Yes
Forced : No

Audio
ID : 2
Format : E-AC-3
Format/Info : Enhanced AC-3
Commercial name : Dolby Digital Plus
Codec ID : A_EAC3
Duration : 1 h 53 min
Bit rate mode : Constant
Bit rate : 640 kb/s
Channel(s) : 6 channels
Channel layout : L R C LFE Ls Rs
Sampling rate : 48.0 kHz
Frame rate : 31.250 FPS (1536 SPF)
Compression mode : Lossy
Stream size : 520 MiB (10%)
Title : English
Language : English
Service kind : Complete Main
Default : Yes
Forced : No

Text #1
ID : 3
Format : UTF-8
Codec ID : S_TEXT/UTF8
Codec ID/Info : UTF-8 Plain Text
Duration : 1 h 45 min
Bit rate : 80 b/s
Count of elements : 896
Stream size : 61.9 KiB (0%)
Title : Thai SRT From Netflix
Language : Thai
Default : Yes
Forced : No

Text #2
ID : 4
Format : VobSub
Muxing mode : zlib
Codec ID : S_VOBSUB
Codec ID/Info : Picture based subtitle format used on DVDs
Duration : 1 h 45 min
Bit rate : 1 511 b/s
Count of elements : 896
Stream size : 1.14 MiB (0%)
Title : Thai 480p From Netflix
Language : Thai
Default : No
Forced : No

Text #3
ID : 5
Format : VobSub
Muxing mode : zlib
Codec ID : S_VOBSUB
Codec ID/Info : Picture based subtitle format used on DVDs
Duration : 1 h 45 min
Bit rate : 1 511 b/s
Count of elements : 896
Stream size : 1.14 MiB (0%)
Title : Thai 480p Out From Netflix
Language : Thai
Default : No
Forced : No

Text #4
ID : 6
Format : VobSub
Muxing mode : zlib
Codec ID : S_VOBSUB
Codec ID/Info : Picture based subtitle format used on DVDs
Duration : 1 h 45 min
Bit rate : 3 000 b/s
Count of elements : 896
Stream size : 2.25 MiB (0%)
Title : Thai 720p From Netflix
Language : Thai
Default : No
Forced : No

Text #5
ID : 7
Format : VobSub
Muxing mode : zlib
Codec ID : S_VOBSUB
Codec ID/Info : Picture based subtitle format used on DVDs
Duration : 1 h 45 min
Bit rate : 3 000 b/s
Count of elements : 896
Stream size : 2.25 MiB (0%)
Title : Thai 720p Out From Netflix
Language : Thai
Default : No
Forced : No

Text #6
ID : 8
Format : VobSub
Muxing mode : zlib
Codec ID : S_VOBSUB
Codec ID/Info : Picture based subtitle format used on DVDs
Duration : 1 h 45 min
Bit rate : 5 945 b/s
Count of elements : 896
Stream size : 4.47 MiB (0%)
Title : Thai 1080p From Netflix
Language : Thai
Default : No
Forced : No

Text #7
ID : 9
Format : VobSub
Muxing mode : zlib
Codec ID : S_VOBSUB
Codec ID/Info : Picture based subtitle format used on DVDs
Duration : 1 h 45 min
Bit rate : 5 945 b/s
Count of elements : 896
Stream size : 4.47 MiB (0%)
Title : Thai 1080p Out From Netflix
Language : Thai
Default : No
Forced : No

Text #8
ID : 10
Format : PGS
Muxing mode : zlib
Codec ID : S_HDMV/PGS
Codec ID/Info : Picture based subtitle format used on BDs/HD-DVDs
Duration : 1 h 45 min
Bit rate : 18.3 kb/s
Count of elements : 1792
Stream size : 13.7 MiB (0%)
Title : Thai PGS From Netflix
Language : Thai
Default : No
Forced : No

Text #9
ID : 11
Format : PGS
Muxing mode : zlib
Codec ID : S_HDMV/PGS
Codec ID/Info : Picture based subtitle format used on BDs/HD-DVDs
Duration : 1 h 45 min
Bit rate : 18.3 kb/s
Count of elements : 1792
Stream size : 13.7 MiB (0%)
Title : Thai PGS Out From Netflix
Language : Thai
Default : No
Forced : No

Text #10
ID : 12
Format : PGS
Muxing mode : zlib
Codec ID : S_HDMV/PGS
Codec ID/Info : Picture based subtitle format used on BDs/HD-DVDs
Duration : 1 h 45 min
Bit rate : 21.6 kb/s
Count of elements : 2312
Stream size : 16.4 MiB (0%)
Title : English PGS From Netflix
Language : English
Default : No
Forced : No

DOWNLOAD


PART01 |||| PART02 |||| PART03 |||| PART04 |||| PART05 |||| PART06

PART01 |||| PART02 |||| PART03 |||| PART04 |||| PART05 |||| PART06

PART01 |||| PART02 |||| PART03 |||| PART04 |||| PART05 |||| PART06

PART01 |||| PART02 |||| PART03 |||| PART04 |||| PART05 |||| PART06


Leave A Reply

Your email address will not be published.

%d bloggers like this: