[ฝรั่ง] Don’t Breathe 2 (2021) ลมหายใจสั่งตาย ภาค 2 [1080p] [AMAZON] [พากย์อังกฤษ 5.1] [Soundtrack บรรยายไทย + อังกฤษ] [เสียงอังกฤษ + ซับไทย] [USERLOAD]

0

โหลดหนัง Don’t Breathe 2 (2021) ลมหายใจสั่งตาย ภาค 2

Don't Breathe 2 98min | Horror, Thriller | August 13, 2021 (United States) Summary: The sequel is set in the years following the initial deadly home invasion, where Norman Nordstrom (Stephen Lang) lives in quiet solace until his past sins catch up to him.
Countries: United States, SerbiaLanguages: English

เรื่องย่อ CHIPs (2017) ชิปส์

เรื่องราวครั้งนี้ค่อนข้างแตกต่างจากภาคแรกพอสมควร ที่คราวนี้ปู่รับดูแลเด็กสาวคนหนึ่ง คอยฝึกฝนให้เธอเอาตัวรอด แต่เธอเป็นใครนั้นตัวอย่างยังไม่บอกอะไรเรามากมาย แต่วันหนึ่งบ้านของปู่ก็ถูกบุกอีกครั้งคราวนี้เป้าหมายของพวกมันคือเด็กผู้หญิง และพวกมันก็จับตัวเด็กสาวไปได้ นั่นทำให้ปู่ต้องคว้าอาวุธใช้ทุกสิ่งที่มีออกมาตามล่าอีกครั้งสิ่งที่น่าสนใจก็คือ เด็กสาวคนนี้สำคัญอะไรกับปู่นอร์แมนแถมดูเหมือนว่าเจ้าพวกที่บุกมานี้จะรู้อดีตและความลับของปู่นอร์แมนด้วยมารอดูกันว่ามันจะเกิดอะไรขึ้น

Complete name : Don.t.Breathe.2.2021.1080p.AMZN.WEB-DL.EAC3.x264.Subthai.One2loadup.com.mkv
Format : Matroska
Format version : Version 4
File size : 4.27 GiB
Duration : 1 h 38 min
Overall bit rate : 6 223 kb/s
Movie name : Don.t.Breathe.2.2021.1080p.AMZN.WEB-DL.EAC3.x264.Subthai.One2loadup.com
Encoded date : UTC 2021-09-03 14:10:17
Writing application : mkvmerge v61.0.0 (‘So’) 64-bit
Writing library : libebml v1.4.2 + libmatroska v1.6.4

Video
ID : 1
Format : AVC
Format/Info : Advanced Video Codec
Format profile : [email protected]
Format settings : CABAC / 3 Ref Frames
Format settings, CABAC : Yes
Format settings, Reference : 3 frames
Codec ID : V_MPEG4/ISO/AVC
Duration : 1 h 38 min
Bit rate : 5 574 kb/s
Width : 1 920 pixels
Height : 800 pixels
Display aspect ratio : 2.40:1
Frame rate mode : Constant
Frame rate : 23.976 (24000/1001) FPS
Color space : YUV
Chroma subsampling : 4:2:0
Bit depth : 8 bits
Scan type : Progressive
Bits/(Pixel*Frame) : 0.151
Stream size : 3.82 GiB (90%)
Title : Don.t.Breathe.2.2021.1080p.AMZN.WEB-DL.EAC3.x264.Subthai.One2loadup.com
Language : English
Default : Yes
Forced : No
Color range : Limited
Color primaries : BT.709
Transfer characteristics : BT.709
Matrix coefficients : BT.709

Audio
ID : 2
Format : E-AC-3
Format/Info : Enhanced AC-3
Commercial name : Dolby Digital Plus
Codec ID : A_EAC3
Duration : 1 h 38 min
Bit rate mode : Constant
Bit rate : 640 kb/s
Channel(s) : 6 channels
Channel layout : L R C LFE Ls Rs
Sampling rate : 48.0 kHz
Frame rate : 31.250 FPS (1536 SPF)
Compression mode : Lossy
Stream size : 450 MiB (10%)
Title : E-AC3 English
Language : English
Service kind : Complete Main
Default : Yes
Forced : No

Text #1
ID : 3
Format : VobSub
Muxing mode : zlib
Codec ID : S_VOBSUB
Codec ID/Info : Picture based subtitle format used on DVDs
Duration : 1 h 28 min
Bit rate : 3 582 b/s
Count of elements : 481
Stream size : 2.27 MiB (0%)
Title : Sub Thai 1080p
Language : Thai
Default : No
Forced : No

Text #2
ID : 4
Format : UTF-8
Codec ID : S_TEXT/UTF8
Codec ID/Info : UTF-8 Plain Text
Duration : 1 h 28 min
Bit rate : 37 b/s
Count of elements : 481
Stream size : 24.0 KiB (0%)
Title : Sub Thai SRT
Language : Thai
Default : No
Forced : No

Text #3
ID : 5
Format : PGS
Muxing mode : zlib
Codec ID : S_HDMV/PGS
Codec ID/Info : Picture based subtitle format used on BDs/HD-DVDs
Duration : 1 h 28 min
Bit rate : 10.4 kb/s
Count of elements : 962
Stream size : 6.57 MiB (0%)
Title : Sub Thai PGS
Language : Thai
Default : Yes
Forced : No

Text #4
ID : 6
Format : UTF-8
Codec ID : S_TEXT/UTF8
Codec ID/Info : UTF-8 Plain Text
Duration : 1 h 35 min
Bit rate : 23 b/s
Count of elements : 925
Stream size : 16.8 KiB (0%)
Title : Sub English SRT
Language : English
Default : No
Forced : No

DOWNLOAD


PART01 |||| PART02 |||| PART03 |||| PART04 |||| PART05

PART01 |||| PART02 |||| PART03 |||| PART04 |||| PART05

PART01 |||| PART02 |||| PART03 |||| PART04 |||| PART05

PART01 |||| PART02 |||| PART03 |||| PART04 |||| PART05

PART01 |||| PART02 |||| PART03 |||| PART04 |||| PART05


Leave A Reply

อีเมล์ของคุณจะไม่แสดงให้เห็น Your email address will not be published.

%d bloggers like this: