เว็บโหลดหนัง HD MINI-HD SUPER-HQ Full-HD 1080p One2up VIP Master Zoom ซูม หนังใหม่ ออนไลน์ มาสเตอร์ ไทย จีน ฝรั่ง การ์ตูน

[Zoom] Rampage (2018) แรมเพจ ใหญ่ชนยักษ์ [ภาพชัดชนโรง] [720p] [พากย์ไทยโรง + อังกฤษ] [HDCAM] [เสียงไทยโรง] [ONE2UP]

0

Rampage (2018) แรมเพจ ใหญ่ชนยักษ์

โหลดหนัง Rampage (2018) แรมเพจ ใหญ่ชนยักษ์

เรื่องย่อ Rampage (2018) แรมเพจ ใหญ่ชนยักษ์

Rampage ภาพยนตร์แอ็คชั่นผจญภัย “Rampage” คือเรื่องราวของนักวานรวิทยา ดาวิส โอโคเย (จอห์นสัน) ชายผู้หลบเลี่ยงห่างไกลจากผู้คน เขามีสายสัมพันธ์อันแน่นหนาที่ไม่มีวันสั่นคลอนกับจอร์จ กอริล่าหลังเงินที่เฉลียวฉลาดยิ่งกว่ากอริลล่าทั่วไปที่เขาเป็นผู้เลี้ยงดูมาตั้งแต่มันเกิด แต่แล้วยีนส์แห่งความโหดร้ายในร่างมันได้เกิดการกลายพันธุ์ และเปลี่ยนกอริลล่าแสนสุภาพตัวนี้ให้กลายเป็นสิ่งมีชีวิตที่โหดร้ายตัวใหญ่ยักษ์ และทุกสิ่งเลวร้ายยิ่งขึ้น เมื่อได้มีการค้นพบว่า แท้จริงแล้วยังมีสัตว์อื่นอีกมายมายที่เกิดการกลายพันธุ์เช่นเดียวกัน พวกมันกลายเป็นนักล่าที่อยู่เหนือทุกขีวิตและมุ่งหน้าสู่อเมริกาเหนือ ทำลายทุกสิ่งที่ขวางทางของพวกมัน กลุ่มของโอโคเยและนักพันธุวิศวกรรมผู้ไม่น่าเชื่อถือต้องปกป้องแอนติโดส ต่อสู้กับอุปสรรคขวากหนามและปัญหามากมายที่มาเยือนอย่างไม่ซ้ำ ไม่เพียงเพื่อหยุดยั้งจุดจบของโลก ทว่าเพื่อช่วยสิ่งมีชีวิตที่น่าหวาดหวั่น ที่ครั้งหนึ่ง เคยเป็นเพื่อนของเขาเอง

Complete name : [Zoom]_Rampage 2018.720p.HDCAM.X264.AC3.THR2.0.One2loadup.com.mkv
Format : Matroska
Format version : Version 4 / Version 2
File size : 3.14 GiB
Duration : 1 h 39 min
Overall bit rate : 4 510 kb/s
Movie name : [Zoom]_Rampage 2018.720p.HDCAM.X264.AC3.THR2.0.One2loadup.com
Encoded date : UTC 2018-04-14 02:21:55
Writing application : mkvmerge v9.9.0 (‘Pick Up’) 64bit
Writing library : libebml v1.3.4 + libmatroska v1.4.5
Cover : Yes
Attachments : cover.jpg

Video
ID : 1
Format : AVC
Format/Info : Advanced Video Codec
Format profile : [email protected]
Format settings : 1 Ref Frames
Format settings, CABAC : No
Format settings, ReFrames : 1 frame
Codec ID : V_MPEG4/ISO/AVC
Duration : 1 h 39 min
Bit rate : 4 123 kb/s
Width : 1 280 pixels
Height : 720 pixels
Display aspect ratio : 16:9
Frame rate mode : Constant
Frame rate : 29.970 FPS
Original frame rate : 29.000 FPS
Color space : YUV
Chroma subsampling : 4:2:0
Bit depth : 8 bits
Scan type : Progressive
Bits/(Pixel*Frame) : 0.149
Stream size : 2.87 GiB (91%)
Title : [Zoom]_Rampage 2018.720p.HDCAM.X264.AC3.THR2.0.One2loadup.com
Language : English
Default : Yes
Forced : No

Audio #1
ID : 2
Format : AC-3
Format/Info : Audio Coding 3
Codec ID : A_AC3
Duration : 1 h 39 min
Bit rate mode : Constant
Bit rate : 192 kb/s
Channel(s) : 2 channels
Channel positions : Front: L R
Sampling rate : 48.0 kHz
Frame rate : 31.250 FPS (1536 SPF)
Bit depth : 16 bits
Compression mode : Lossy
Delay relative to video : -154 ms
Stream size : 137 MiB (4%)
Title : THR 2.0
Language : Thai
Service kind : Complete Main
Default : Yes
Forced : Yes

Audio #2
ID : 3
Format : AC-3
Format/Info : Audio Coding 3
Codec ID : A_AC3
Duration : 1 h 39 min
Bit rate mode : Constant
Bit rate : 192 kb/s
Channel(s) : 2 channels
Channel positions : Front: L R
Sampling rate : 48.0 kHz
Frame rate : 31.250 FPS (1536 SPF)
Bit depth : 16 bits
Compression mode : Lossy
Delay relative to video : -154 ms
Stream size : 137 MiB (4%)
Title : English 2.0
Language : English
Service kind : Complete Main
Default : No
Forced : No

DOWNLOAD


PART01 |||| PART02 |||| PART03 |||| PART04

PART01 |||| PART02 |||| PART03 |||| PART04

PART01 |||| PART02 |||| PART03 |||| PART04

PART01 |||| PART02 |||| PART03 |||| PART04


Leave A Reply

Your email address will not be published.

%d bloggers like this: