โหลดหนัง HD MINI-HD SUPER-HQ Full-HD 1080p VIP Master Zoom ซูม หนังใหม่ ออนไลน์ มาสเตอร์ ไทย จีน ฝรั่ง การ์ตูน

[Zoom] How to Train Your Dragon: The Hidden World (2019) อภินิหารไวกิ้งพิชิตมังกร 3 [หนังซูม] [พากย์ไทยโรง 2.0 + เสียงอังกฤษ 2.0] [Modified] [เสียงไทยโรง] [OPENLOAD]

โหลดหนัง  How to Train Your Dragon: The Hidden World (2019) อภินิหารไวกิ้งพิชิตมังกร 3

เรื่องย่อ How to Train Your Dragon: The Hidden World (2019) อภินิหารไวกิ้งพิชิตมังกร 3

จุดเริ่มต้นจากมิตรภาพเหลือเชื่อระหว่างไวกิ้งหนุ่มกับมังกรไนท์ ฟิวรี ที่น่าสะพรึงกลัว ได้กลายเป็นไตรภาคอีพิคที่บอกเล่าเรื่องราวชีวิตของพวกเขา ในตำนานบทใหม่นี้ ในที่สุด ฮิคคัพและทูธเลสก็จะได้ค้นพบโชคชะตาที่แท้จริงของพวก เขาเสียที นั่นคือการเป็นหัวหน้าหมู่บ้านในฐานะผู้นำของเหล่าเบิร์ค เคียงข้างแอสทริด และการเป็นมังกรผู้นำฝูงในขณะที่ทั้งคู่กำลังจะขึ้นครองอำนาจ ภัยคุกคามที่ร้ายกาจที่สุดเท่าที่พวกเขาเคยเผชิญ รวมถึงการปรากฏตัวของไนท์ ฟิวรีเพศเมียจะทดสอบสายสัมพันธ์มิตรภาพระหว่างพวกเขาอย่างที่ไม่เคยปรากฏมาก่อน !!!

Complete name : How.to.Train.Your.Dragon.3.2019.720p.HDCAM.x264.AC3.THR2.0.One2loadup.com.mkv
Format : Matroska
Format version : Version 4
File size : 2.58 GiB
Duration : 1 h 34 min
Overall bit rate mode : Variable
Overall bit rate : 3 911 kb/s
Movie name : How.to.Train.Your.Dragon.3.2019.720p.HDCAM.x264.AC3.THR2.0.One2loadup.com
Encoded date : UTC 2019-02-03 11:46:57
Writing application : mkvmerge v25.0.0 (‘Prog Noir’) 64-bit
Writing library : libebml v1.3.6 + libmatroska v1.4.9

Video
ID : 1
Format : AVC
Format/Info : Advanced Video Codec
Format profile : [email protected]
Format settings : CABAC / 6 Ref Frames
Format settings, CABAC : Yes
Format settings, ReFrames : 6 frames
Codec ID : V_MPEG4/ISO/AVC
Duration : 1 h 34 min
Bit rate mode : Variable
Bit rate : 3 478 kb/s
Maximum bit rate : 18.0 Mb/s
Width : 1 280 pixels
Height : 536 pixels
Display aspect ratio : 2.40:1
Frame rate mode : Constant
Frame rate : 29.970 (30000/1001) FPS
Standard : Component
Color space : YUV
Chroma subsampling : 4:2:0
Bit depth : 8 bits
Scan type : Progressive
Bits/(Pixel*Frame) : 0.169
Stream size : 2.30 GiB (89%)
Title : How.to.Train.Your.Dragon.3.2019.720p.HDCAM.x264.AC3.THR2.0.One2loadup.com
Writing library : x264 core 148
Encoding settings : cabac=1 / ref=6 / deblock=1:0:0 / analyse=0x3:0x113 / me=hex / subme=7 / psy=1 / psy_rd=1.00:0.00 / mixed_ref=1 / me_range=16 / chroma_me=1 / trellis=1 / 8x8dct=1 / cqm=1 / deadzone=21,11 / fast_pskip=1 / chroma_qp_offset=-2 / threads=12 / lookahead_threads=2 / sliced_threads=0 / slices=1 / nr=0 / decimate=1 / interlaced=0 / minigop=0 / stitchable=1 / constrained_intra=0 / bframes=3 / b_pyramid=0 / b_adapt=1 / b_bias=0 / direct=1 / weightb=1 / open_gop=0 / weightp=2 / keyint=250 / keyint_min=25 / scenecut=40 / intra_refresh=0 / rc_lookahead=40 / rc=abr / mbtree=1 / bitrate=3478 / ratetol=1.0 / qcomp=0.60 / qpmin=3 / qpmax=69 / qpstep=4 / vbv_maxrate=18000 / vbv_bufsize=18000 / nal_hrd=vbr / filler=0 / ip_ratio=1.40 / aq=1:1.00
Default : Yes
Forced : No
Color range : Limited
Color primaries : BT.709
Transfer characteristics : BT.709
Matrix coefficients : BT.709

Audio #1
ID : 2
Format : AC-3
Format/Info : Audio Coding 3
Commercial name : Dolby Digital
Codec ID : A_AC3
Duration : 1 h 34 min
Bit rate mode : Constant
Bit rate : 192 kb/s
Channel(s) : 2 channels
Channel layout : L R
Sampling rate : 48.0 kHz
Frame rate : 31.250 FPS (1536 SPF)
Bit depth : 16 bits
Compression mode : Lossy
Stream size : 130 MiB (5%)
Title : Thai Rong 2.0 Modified By Scarlett98
Language : Thai
Service kind : Complete Main
Default : Yes
Forced : No

Audio #2
ID : 3
Format : AC-3
Format/Info : Audio Coding 3
Commercial name : Dolby Digital
Codec ID : A_AC3
Duration : 1 h 34 min
Bit rate mode : Constant
Bit rate : 224 kb/s
Channel(s) : 2 channels
Channel layout : L R
Sampling rate : 48.0 kHz
Frame rate : 31.250 FPS (1536 SPF)
Bit depth : 16 bits
Compression mode : Lossy
Stream size : 151 MiB (6%)
Title : English 2.0
Language : English
Service kind : Complete Main
Default : No
Forced : No

DOWNLOAD


PART01 |||| PART02 |||| PART03

PART01 |||| PART02 |||| PART03

PART01 |||| PART02 |||| PART03

PART01 |||| PART02 |||| PART03


Leave A Reply

Your email address will not be published.

%d bloggers like this: