เว็บโหลดหนัง HD MINI-HD SUPER-HQ Full-HD 1080p One2up VIP Master Zoom ซูม หนังใหม่ ออนไลน์ มาสเตอร์ ไทย จีน ฝรั่ง การ์ตูน

[Zoom] Avengers: Infinity War (2018) มหาสงครามล้างจักรวาล [720p] [พากย์ไทยโรง + เสียงอังกฤษ 2.0] [HD-CAM] [เสียงไทยโรง] [ONE2UP]

0

Avengers: Infinity War (2018) มหาสงครามล้างจักรวาล

โหลดหนัง Avengers: Infinity War (2018) มหาสงครามล้างจักรวาล 

เรื่องย่อ Avengers: Infinity War (2018) มหาสงครามล้างจักรวาล

เหล่าอเวนเจอร์ยังคงต้องปกป้องโลกจากภัยอันตรายครั้งใหญ่ที่เกินกว่าที่ซุปเปอร์ฮีโร่คนเดียวจะรับมือได้ อันตรายครั้งใหม่นั้นมาจากเงามืดของจักรวาล ‘ทานอส’ จอมเผด็จการแห่งจักรวาล เป้าหมายของเขาคือการรวบรวมอัญมณี อินฟินิตี้สโตนส์ทั้งหก เพื่อครอบครองพลังที่เกินจะจินตนาการถึง และใช้พวกมันในการเปลี่ยนแปลงความจริงทั้งมวลของจักรวาล ทุกสิ่งทุกอย่างที่อเวนเจอร์ต่อสู้มาก็เพื่อสิ่งนี้ ชะตากรรมของโลกและจักรวาลไม่เคยสั่นคลอนเท่านี้มาก่อน

Complete name : [Zoom]_Avengers.Infinity.War.2018.NEW.720p.HD-CAM.X264.THR2.0.One2loadup.com.mkv
Format : Matroska
Format version : Version 4 / Version 2
File size : 3.75 GiB
Duration : 2 h 28 min
Overall bit rate mode : Variable
Overall bit rate : 3 600 kb/s
Movie name : [Zoom]_Avengers.Infinity.War.2018.NEW.720p.HD-CAM.X264.THR2.0.One2loadup.com
Encoded date : UTC 2018-05-02 04:47:09
Writing application : mkvmerge v9.9.0 (‘Pick Up’) 64bit
Writing library : libebml v1.3.4 + libmatroska v1.4.5
Cover : Yes
Attachments : cover.jpg

Video
ID : 1
Format : AVC
Format/Info : Advanced Video Codec
Format profile : [email protected]
Format settings : CABAC / 6 Ref Frames
Format settings, CABAC : Yes
Format settings, ReFrames : 6 frames
Codec ID : V_MPEG4/ISO/AVC
Duration : 2 h 28 min
Bit rate mode : Variable
Bit rate : 3 023 kb/s
Maximum bit rate : 62.5 Mb/s
Width : 1 280 pixels
Height : 528 pixels
Display aspect ratio : 2.40:1
Frame rate mode : Constant
Frame rate : 30.000 FPS
Color space : YUV
Chroma subsampling : 4:2:0
Bit depth : 8 bits
Scan type : Progressive
Bits/(Pixel*Frame) : 0.149
Stream size : 3.15 GiB (84%)
Title : [Zoom]_Avengers.Infinity.War.2018.NEW.720p.HD-CAM.X264.THR2.0.One2loadup.com
Language : English
Default : Yes
Forced : No
Color range : Full
Color primaries : BT.709
Transfer characteristics : BT.709
Matrix coefficients : BT.709

Audio #1
ID : 2
Format : AC-3
Format/Info : Audio Coding 3
Codec ID : A_AC3
Duration : 2 h 28 min
Bit rate mode : Constant
Bit rate : 192 kb/s
Channel(s) : 2 channels
Channel positions : Front: L R
Sampling rate : 48.0 kHz
Frame rate : 31.250 FPS (1536 SPF)
Bit depth : 16 bits
Compression mode : Lossy
Stream size : 205 MiB (5%)
Title : THR 2.0
Language : Thai
Service kind : Complete Main
Default : Yes
Forced : Yes

Audio #2
ID : 3
Format : AAC
Format/Info : Advanced Audio Codec
Format profile : LC
Codec ID : A_AAC-2
Duration : 2 h 28 min
Bit rate : 384 kb/s
Channel(s) : 2 channels
Channel positions : Front: L R
Sampling rate : 44.1 kHz
Frame rate : 43.066 FPS (1024 SPF)
Compression mode : Lossy
Delay relative to video : 16 ms
Stream size : 407 MiB (11%)
Title : English 2.0
Language : English
Default : No
Forced : No

DOWNLOAD


PART01 |||| PART02 |||| PART03 |||| PART04

PART01 |||| PART02 |||| PART03 |||| PART04

PART01 |||| PART02 |||| PART03 |||| PART04

PART01 |||| PART02 |||| PART03 |||| PART04


Leave A Reply

Your email address will not be published.

%d bloggers like this: