[Zoom] Avengers: Endgame (2019) อเวนเจอร์ส: เผด็จศึก [720p] [พากย์ไทยโรง 2.0 + เสียงอังกฤษ 2.0] [บรรยายจีนฝัง] [เสียงไทยโรง] [OPENLOAD]

0

โหลดหนัง  Avengers: Endgame (2019) อเวนเจอร์ส: เผด็จศึก

Summary:

เรื่องย่อ Avengers: Endgame (2019) อเวนเจอร์ส: เผด็จศึก

Avengers Endgame เรื่องราวการปิดจักรวาลมาร์เวลเฟส 3 เหตุการณ์ภายหลังจากที่ธานอสดีดนิ้วล้างครึ่งจักรวาล เหล่าฮีโร่ที่เหลือรอดจะหาทางกอบกู้จักรวาลนี้คืนมาได้อย่างไร โดยในภาคนี้จะมีตัวเด็ดอย่างกัปตันมาร์เวลมาร่วมเสริมทัพด้วย!

Complete name : [Zoom]_Avengers.Endgame.2019.720p.HDCAM.WEB-DL.THR2.0.H264.One2loadup.com.mkv
Format : Matroska
Format version : Version 4
File size : 2.99 GiB
Duration : 2 h 53 min
Overall bit rate : 2 472 kb/s
Movie name : [Zoom]_Avengers.Endgame.2019.720p.HDCAM.WEB-DL.THR2.0.H264.One2loadup.com
Encoded date : UTC 2019-04-25 06:35:48
Writing application : mkvmerge v25.0.0 (‘Prog Noir’) 64-bit
Writing library : libebml v1.3.6 + libmatroska v1.4.9

Video
ID : 1
Format : AVC
Format/Info : Advanced Video Codec
Format profile : [email protected]
Format settings : CABAC / 4 Ref Frames
Format settings, CABAC : Yes
Format settings, ReFrames : 4 frames
Codec ID : V_MPEG4/ISO/AVC
Duration : 2 h 53 min
Bit rate : 2 116 kb/s
Width : 1 280 pixels
Height : 720 pixels
Display aspect ratio : 2.529
Frame rate mode : Constant
Frame rate : 29.970 FPS
Color space : YUV
Chroma subsampling : 4:2:0
Bit depth : 8 bits
Scan type : Progressive
Bits/(Pixel*Frame) : 0.077
Stream size : 2.56 GiB (86%)
Title : [Zoom]_Avengers.Endgame.2019.720p.HDCAM.WEB-DL.THR2.0.H264.One2loadup.com
Writing library : x264 core 157 r2935 545de2f
Encoding settings : cabac=1 / ref=1 / deblock=1:0:0 / analyse=0x1:0x111 / me=hex / subme=2 / psy=1 / psy_rd=1.00:0.00 / mixed_ref=0 / me_range=16 / chroma_me=1 / trellis=0 / 8x8dct=0 / cqm=0 / deadzone=21,11 / fast_pskip=1 / chroma_qp_offset=0 / threads=22 / lookahead_threads=5 / sliced_threads=0 / nr=0 / decimate=1 / interlaced=0 / bluray_compat=0 / constrained_intra=0 / bframes=3 / b_pyramid=2 / b_adapt=1 / b_bias=0 / direct=1 / weightb=1 / open_gop=0 / weightp=1 / keyint=300 / keyint_min=30 / scenecut=40 / intra_refresh=0 / rc_lookahead=10 / rc=crf / mbtree=1 / crf=23.0 / qcomp=0.60 / qpmin=0 / qpmax=69 / qpstep=4 / vbv_maxrate=14000 / vbv_bufsize=14000 / crf_max=0.0 / nal_hrd=none / filler=0 / ip_ratio=1.40 / aq=1:1.00
Language : English
Default : Yes
Forced : No
Color range : Limited
Color primaries : BT.709
Transfer characteristics : BT.709
Matrix coefficients : BT.709

Audio #1
ID : 2
Format : AC-3
Format/Info : Audio Coding 3
Commercial name : Dolby Digital
Codec ID : A_AC3
Duration : 2 h 53 min
Bit rate mode : Constant
Bit rate : 192 kb/s
Channel(s) : 2 channels
Channel layout : L R
Sampling rate : 48.0 kHz
Frame rate : 31.250 FPS (1536 SPF)
Bit depth : 16 bits
Compression mode : Lossy
Delay relative to video : -21 ms
Stream size : 238 MiB (8%)
Title : ThaiRong 2.0 @ 192 kb/s By [email protected]
Language : Thai
Service kind : Complete Main
Default : Yes
Forced : No

Audio #2
ID : 3
Format : AAC LC
Format/Info : Advanced Audio Codec Low Complexity
Codec ID : A_AAC-2
Duration : 2 h 53 min
Bit rate : 161 kb/s
Channel(s) : 2 channels
Channel layout : L R
Sampling rate : 48.0 kHz
Frame rate : 46.875 FPS (1024 SPF)
Compression mode : Lossy
Delay relative to video : -21 ms
Stream size : 199 MiB (6%)
Title : English 2.0 @ 161 kb/s
Language : English
Default : No
Forced : No

DOWNLOAD


PART01 |||| PART02 |||| PART03 |||| PART04

PART01 |||| PART02 |||| PART03 |||| PART04

PART01 |||| PART02 |||| PART03 |||| PART04

PART01 |||| PART02 |||| PART03 |||| PART04


Leave A Reply

Your email address will not be published.

%d bloggers like this: