โหลดหนัง HD MINI-HD SUPER-HQ Full-HD 1080p VIP Master Zoom ซูม หนังใหม่ ออนไลน์ มาสเตอร์ ไทย จีน ฝรั่ง การ์ตูน

[ฝรั่ง] You Were Never Really Here (2017) คนโหดล้างบาป [720p] [พากย์อังกฤษ 5.1] [Soundtrack บรรยายไทย] [เสียงอังกฤษ + ซับไทย] [ONE2UP]

0

โหลดหนัง  You Were Never Really Here (2017) คนโหดล้างบาป

เรื่องย่อ You Were Never Really Here (2017) คนโหดล้างบาป

โจ ทหารผ่านศึกและอดีตเจ้าหน้าที่เอฟบีไอ ผู้มีปมปัญหาชีวิตตั้งแต่ยังเด็ก ได้ผันตัวเองมารับจ้างตามหาเด็กสาวที่หายตัวไป ไม่ว่าจะด้วยวิธีใด แต่ทว่างานล่าสุดของเขาในการตามหา นีน่าลูกสาวของนักการเมืองใหญ่ ที่หายตัวไปจากบ้าน โจค้นพบว่านี่ไม่ใช่การลักพาตัวธรรมดาและอันตรายเขารู้ดีว่าหน้าที่เดียวของเขาคือปกป้องนีน่า แม้ว่าเขาจะต้องสู้กับอำนาจมืดและฝันร้ายที่คอยหลอกหลอนเขามาตลอด

Complete name : You.Were.Never.Really.Here.2017.720p.WEB-DL.XviD.AC3.One2loadup.com.mkv
Format : Matroska
Format version : Version 4 / Version 2
File size : 2.47 GiB
Duration : 1 h 29 min
Overall bit rate : 3 949 kb/s
Encoded date : UTC 2010-02-22 21:41:31
Writing application : mkvmerge v5.9.0 (‘On The Loose’) built on Dec 9 2012 15:37:01
Writing library : libebml v1.3.0 + libmatroska v1.4.0

Video
ID : 1
Format : MPEG-4 Visual
Format profile : [email protected]
Format settings, BVOP : No
Format settings, QPel : No
Format settings, GMC : No warppoints
Format settings, Matrix : Default (H.263)
Codec ID : V_MS/VFW/FOURCC / XVID
Codec ID/Hint : XviD
Duration : 1 h 29 min
Bit rate : 3 486 kb/s
Width : 1 280 pixels
Height : 530 pixels
Display aspect ratio : 2.40:1
Frame rate mode : Constant
Frame rate : 24.000 FPS
Color space : YUV
Chroma subsampling : 4:2:0
Bit depth : 8 bits
Scan type : Progressive
Compression mode : Lossy
Bits/(Pixel*Frame) : 0.214
Stream size : 2.18 GiB (88%)
Writing library : Lavc58.1.100
Default : Yes
Forced : No

Audio
ID : 2
Format : AC-3
Format/Info : Audio Coding 3
Muxing mode : Header stripping
Codec ID : A_AC3
Duration : 1 h 29 min
Bit rate mode : Constant
Bit rate : 384 kb/s
Channel(s) : 6 channels
Channel positions : Front: L C R, Side: L R, LFE
Sampling rate : 48.0 kHz
Frame rate : 31.250 FPS (1536 SPF)
Bit depth : 16 bits
Compression mode : Lossy
Stream size : 246 MiB (10%)
Title : English
Language : English
Service kind : Complete Main
Default : Yes
Forced : No

Text #1
ID : 3
Format : VobSub
Muxing mode : zlib
Codec ID : S_VOBSUB
Codec ID/Info : Picture based subtitle format used on DVDs
Title : Thai – Subtitle By Unknown
Language : Thai
Default : Yes
Forced : No

Text #2
ID : 4
Format : UTF-8
Codec ID : S_TEXT/UTF8
Codec ID/Info : UTF-8 Plain Text
Title : Thai.srt – Subtitle By Unknown
Language : Thai
Default : No
Forced : No

Text #3
ID : 5
Format : UTF-8
Codec ID : S_TEXT/UTF8
Codec ID/Info : UTF-8 Plain Text
Title : English
Language : English
Default : No
Forced : No

DOWNLOAD


PART01 |||| PART02 |||| PART03

PART01 |||| PART02 |||| PART03

PART01 |||| PART02 |||| PART03

PART01 |||| PART02 |||| PART03


Leave A Reply

Your email address will not be published.

%d bloggers like this: