โหลดหนัง HD MINI-HD SUPER-HQ Full-HD 1080p VIP Master Zoom ซูม หนังใหม่ ออนไลน์ มาสเตอร์ ไทย จีน ฝรั่ง การ์ตูน

[ฝรั่ง] Winchester (2018) คฤหาสน์ขังผี [1080p] [พากย์ไทยโรง 5.1 + เสียงอังกฤษ 5.1] [WEB-DL.H264.AC3.THR5.1] [บรรยายอังกฤษ] [เสียงไทยโรง + ซับอังกฤษ] [ONE2UP]

0

Winchester (2018) คฤหาสน์ขังผี

โหลดหนัง Winchester (2018) คฤหาสน์ขังผี 

เรื่องย่อ Winchester (2018) คฤหาสน์ขังผี

ในดินแดนที่ห่างไกลจากเมืองซานฟรานซิสโก เป็นที่ตั้งของบ้านผีสิงที่โด่งดังที่สุดหลังหนึ่งใน โลก สร้างขึ้นโดย ซาราห์ วินเชสเตอร์ (รับบทโดยเจ้าของรางวัลออสการ์ เฮเลน มิร์เรน) ผู้อยู่เบื้องหลังการสร้างบ้านที่ไม่มีวันสิ้นสุด การก่อสร้างเกิดขึ้นตลอด 24 ชั่วโมง ตลอด 7 วันในสัปดาห์ และเป็นเช่นนี้มาตลอด ภายในบ้านประกอบไปด้วยจำนานห้องกว่า 100 ห้อง ภายนอกนั้นบ้านหลังนี้ดูเหมือนเป็นดั่งอนุสรณ์สถานของหญิงเสียสติ แต่ซาราห์ไม่ได้สร้างเพื่อตัวเธอเอง หรือหลานของเธอ (รับบทโดยซาราห์ สนู๊ค) หรือเพื่อคุณหมอผู้ฉลาดหลักแหลม ด็อกเตอร์อีริค ไพร์ซ (รับบทโดยเจสัน คลาร์ก) หมอหนุ่มผู้ที่เธอเรียกตัวมายังบ้านหลังดังกล่าว

Complete name : Winchester.2018.1080p.WEB-DL.H264.AC3.THR5.1.One2loadup.com.mkv
Format : Matroska
Format version : Version 4 / Version 2
File size : 3.76 GiB
Duration : 1 h 39 min
Overall bit rate : 5 406 kb/s
Movie name : Winchester.2018.1080p.WEB-DL.H264.AC3.THR5.1.One2loadup.com
Encoded date : UTC 2018-04-18 05:01:16
Writing application : mkvmerge v9.9.0 (‘Pick Up’) 64bit
Writing library : libebml v1.3.4 + libmatroska v1.4.5

Video
ID : 1
Format : AVC
Format/Info : Advanced Video Codec
Format profile : [email protected]
Format settings : CABAC / 5 Ref Frames
Format settings, CABAC : Yes
Format settings, ReFrames : 5 frames
Codec ID : V_MPEG4/ISO/AVC
Duration : 1 h 39 min
Bit rate : 4 571 kb/s
Width : 1 908 pixels
Height : 792 pixels
Display aspect ratio : 2.40:1
Frame rate mode : Constant
Frame rate : 23.976 FPS
Color space : YUV
Chroma subsampling : 4:2:0
Bit depth : 8 bits
Scan type : Progressive
Bits/(Pixel*Frame) : 0.126
Stream size : 3.18 GiB (85%)
Title : Winchester.2018.1080p.WEB-DL.H264.AC3.THR5.1.One2loadup.com
Language : English
Default : Yes
Forced : No
Color range : Limited
Color primaries : BT.709
Transfer characteristics : BT.709
Matrix coefficients : BT.709

Audio #1
ID : 2
Format : AC-3
Format/Info : Audio Coding 3
Codec ID : A_AC3
Duration : 1 h 39 min
Bit rate mode : Constant
Bit rate : 448 kb/s
Channel(s) : 6 channels
Channel positions : Front: L C R, Side: L R, LFE
Sampling rate : 48.0 kHz
Frame rate : 31.250 FPS (1536 SPF)
Bit depth : 16 bits
Compression mode : Lossy
Delay relative to video : -42 ms
Stream size : 319 MiB (8%)
Title : THR 5.1
Language : Thai
Service kind : Complete Main
Default : Yes
Forced : Yes

Audio #2
ID : 3
Format : AC-3
Format/Info : Audio Coding 3
Codec ID : A_AC3
Duration : 1 h 39 min
Bit rate mode : Constant
Bit rate : 384 kb/s
Channel(s) : 6 channels
Channel positions : Front: L C R, Side: L R, LFE
Sampling rate : 48.0 kHz
Frame rate : 31.250 FPS (1536 SPF)
Bit depth : 16 bits
Compression mode : Lossy
Delay relative to video : -42 ms
Stream size : 273 MiB (7%)
Title : English DD5.1
Language : English
Service kind : Complete Main
Default : No
Forced : No

Text
ID : 4
Format : UTF-8
Codec ID : S_TEXT/UTF8
Codec ID/Info : UTF-8 Plain Text
Duration : 1 h 26 min
Bit rate : 47 b/s
Count of elements : 1048
Stream size : 30.3 KiB (0%)
Title : English Srt
Language : English
Default : No
Forced : No

Menu
00:00:00.000 : en:1
00:01:15.000 : en:2
00:10:02.000 : en:3
00:20:35.000 : en:4
00:30:57.000 : en:5
00:41:11.000 : en:6
00:51:04.000 : en:7
01:01:51.000 : en:8
01:11:18.000 : en:9
01:18:38.000 : en:10
01:30:54.000 : en:11

DOWNLOAD


PART01 |||| PART02 |||| PART03 |||| PART04

PART01 |||| PART02 |||| PART03 |||| PART04

PART01 |||| PART02 |||| PART03 |||| PART04

PART01 |||| PART02 |||| PART03 |||| PART04


Leave A Reply

Your email address will not be published.

%d bloggers like this: