โหลดหนัง HD MINI-HD SUPER-HQ Full-HD 1080p VIP Master Zoom ซูม หนังใหม่ ออนไลน์ มาสเตอร์ ไทย จีน ฝรั่ง การ์ตูน

[ฝรั่ง] The Strangers: Prey at Night (2018) คนแปลกหน้า ขอฆ่าหน่อยสิ [1080p] [พากย์ไทยโรง 5.1 + เสียงอังกฤษ DD5.1] [เสียงไทยโรง] [ONE2UP]

0

The Strangers: Prey at Night (2018) คนแปลกหน้า ขอฆ่าหน่อยสิ

โหลดหนัง The Strangers: Prey at Night (2018) คนแปลกหน้า ขอฆ่าหน่อยสิ

เรื่องย่อ The Strangers: Prey at Night (2018) คนแปลกหน้า ขอฆ่าหน่อยสิ

เรื่องราวของครอบครัวครอบครัวหนึ่งที่กำลังอยู่ในช่วงขับรถเที่ยวต้องเจอกับความน่ากลัวขั้นสุด เมื่อพวกเขาได้เดินทางมาถึงบ้านพักโมบายเล็ก ๆ ที่แยกตัวออกมาอยู่เพียงลำพัง ในค่ำคืนนั้นเองคนโรคจิตสามคนภายใต้หน้ากากได้ปรากฏตัวขึ้น และเริ่มไล่ล่าครอบครัวนี้ราวกับต้องการจะรู้ว่าพวกเขาจะหนีจากความตายไปได้สักกี่น้ำ

Complete name : The.Strangers.Prey.at.Night.2018.1080p.WEB-DL.AC-3.THR5.1.H264.One2loadup.com.mkv
Format : Matroska
Format version : Version 4 / Version 2
File size : 3.25 GiB
Duration : 1 h 25 min
Overall bit rate : 5 430 kb/s
Movie name : The.Strangers.Prey.at.Night.2018.1080p.WEB-DL.AC-3.THR5.1.H264.One2loadup.com
Encoded date : UTC 2018-05-27 04:07:14
Writing application : mkvmerge v9.9.0 (‘Pick Up’) 64bit
Writing library : libebml v1.3.4 + libmatroska v1.4.5
Cover : Yes
Attachments : cover.jpg

Video
ID : 1
Format : AVC
Format/Info : Advanced Video Codec
Format profile : [email protected]
Format settings : CABAC / 5 Ref Frames
Format settings, CABAC : Yes
Format settings, ReFrames : 5 frames
Codec ID : V_MPEG4/ISO/AVC
Duration : 1 h 25 min
Bit rate : 4 596 kb/s
Width : 1 916 pixels
Height : 800 pixels
Display aspect ratio : 2.40:1
Frame rate mode : Constant
Frame rate : 23.976 (23976/1000) FPS
Color space : YUV
Chroma subsampling : 4:2:0
Bit depth : 8 bits
Scan type : Progressive
Bits/(Pixel*Frame) : 0.125
Stream size : 2.75 GiB (85%)
Title : The.Strangers.Prey.at.Night.2018.1080p.WEB-DL.AC-3.THR5.1.H264.One2loadup.com
Language : English
Default : Yes
Forced : No
Color range : Limited
Color primaries : BT.709
Transfer characteristics : BT.709
Matrix coefficients : BT.709

Audio #1
ID : 2
Format : AC-3
Format/Info : Audio Coding 3
Codec ID : A_AC3
Duration : 1 h 25 min
Bit rate mode : Constant
Bit rate : 448 kb/s
Channel(s) : 6 channels
Channel positions : Front: L C R, Side: L R, LFE
Sampling rate : 48.0 kHz
Frame rate : 31.250 FPS (1536 SPF)
Bit depth : 16 bits
Compression mode : Lossy
Delay relative to video : -42 ms
Stream size : 274 MiB (8%)
Title : THR 5.1
Language : Thai
Service kind : Complete Main
Default : Yes
Forced : Yes

Audio #2
ID : 3
Format : AC-3
Format/Info : Audio Coding 3
Codec ID : A_AC3
Duration : 1 h 25 min
Bit rate mode : Constant
Bit rate : 384 kb/s
Channel(s) : 6 channels
Channel positions : Front: L C R, Side: L R, LFE
Sampling rate : 48.0 kHz
Frame rate : 31.250 FPS (1536 SPF)
Bit depth : 16 bits
Compression mode : Lossy
Delay relative to video : -42 ms
Stream size : 235 MiB (7%)
Title : English DD5.1
Language : English
Service kind : Complete Main
Default : No
Forced : No

Menu
00:00:00.000 : en:1
00:05:00.884 : en:2
00:08:50.154 : en:3
00:12:59.111 : en:4
00:17:24.918 : en:5
00:21:54.771 : en:6
00:24:54.909 : en:7
00:30:16.105 : en:8
00:34:46.208 : en:9
00:40:02.899 : en:10
00:44:49.727 : en:11
00:49:49.443 : en:12
00:53:13.605 : en:13
00:56:56.995 : en:14
00:58:21.704 : en:15
01:00:38.882 : en:16
01:05:22.707 : en:17
01:09:18.526 : en:18
01:15:00.034 : en:19
01:18:08.347 : en:20

DOWNLOAD


PART01 |||| PART02 |||| PART03 |||| PART04

PART01 |||| PART02 |||| PART03 |||| PART04

PART01 |||| PART02 |||| PART03 |||| PART04

PART01 |||| PART02 |||| PART03 |||| PART04


Leave A Reply

Your email address will not be published.

%d bloggers like this: