[MINI Super-HQ] Fast : The Fate of the Furious (2017) เร็ว…แรงทะลุนรก ภาค 8 [1080p] [พากย์ไทย DTS + เสียงอังกฤษ DTS] [บรรยายไทย + อังกฤษ] [เสียงไทย + ซับไทย] [OPENLOAD]

9

โหลดหนัง The Fate of the Furious (2017) เร็ว…แรงทะลุนรก ภาค 8

The Fate of the Furious (2017) 2h 16min | Action, Adventure, Thriller | 14 April 2017 (Canada) Summary: When a mysterious woman seduces Dom into the world of terrorism and a betrayal of those closest to him, the crew face trials that will test them as never before.
Countries: China, USA, JapanLanguages: English, Russian

เรื่องย่อ The Fate of the Furious (2017) เร็ว…แรงทะลุนรก ภาค 8

วิน ดีเซล, ดเวย์น จอห์นสัน และ มิเชล ร็อดริเกซ นำทีมซิ่งในภาพยนตร์ฮิตถล่มทลายไปทั่วโลกที่อัดแน่นด ้วยความมันส์พลังแรงสูงกับ Fast & Furious 8 เวลานี้ดอม (ดีเซล) และเล็ตตี้ (ร็อดริเกซ) ได้แต่งงานกัน ส่วนไบรอันและมีอาก็ปลดระวางตัวเองไปใช้ชีวิตครอบครั ว ขณะที่สมาชิกร่วมแก๊งคนอื่นๆ ก็พ้นจากข้อกล่าวหาและกลับมาใช้ชีวิตอย่างปกติ จนเมื่อสตรีลึกลับนางหนึ่ง (ผู้ชนะรางวัลออสการ์ ชาร์ลิซ เธอรอน) เข้ามาล่อลวงดอมสู่โลกอาชญากรรม โดยที่เขาไม่มีทางเลือกและกลายเป็นคนทรยศต่อครอบครัว พวกเขาทั้งหมดจึงต้องเผชิญกับการทดสอบอย่างที่ไม่เคย พบมาก่อน จากคิวบา ถึงนิวยอร์ก สู่พื้นราบน้ำแข็งบนทะเลบาเรนทส์พวกเขาต้องกลับมาเหยียบระห่ำซิ่งข้ามโลก เพื่อหยุดยั้งแผนการร้ายที่จะก่อความวุ่นวายในโลก และนำชายที่เคยรวบรวมพวกเขาให้เป็นครอบครัวกลับคืนมา อีกครั้ง!!!

Complete name : [MINI-HD]_The.Fate.of.the.Furious.2017.1080p.BrRip.DTS.x264.One2loadup.com.mkv
Format : Matroska
Format version : Version 4 / Version 2
File size : 4.48 GiB
Duration : 2 h 15 min
Overall bit rate : 4 717 kb/s
Movie name : [MINI-HD]_The.Fate.of.the.Furious.2017.1080p.BrRip.DTS.x264.One2loadup.com
Encoded date : UTC 2010-02-22 21:41:31
Writing application : mkvmerge v5.9.0 (‘On The Loose’) built on Dec 9 2012 15:37:01
Writing library : libebml v1.3.0 + libmatroska v1.4.0

Video
ID : 1
Format : AVC
Format/Info : Advanced Video Codec
Format profile : [email protected]
Format settings, CABAC : Yes
Format settings, RefFrames : 4 frames
Codec ID : V_MPEG4/ISO/AVC
Duration : 2 h 15 min
Bit rate : 3 003 kb/s
Width : 1 920 pixels
Height : 804 pixels
Display aspect ratio : 2.40:1
Frame rate mode : Constant
Frame rate : 23.976 (24000/1001) FPS
Color space : YUV
Chroma subsampling : 4:2:0
Bit depth : 8 bits
Scan type : Progressive
Bits/(Pixel*Frame) : 0.081
Stream size : 2.94 GiB (66%)
Title : [MINI-HD]_The.Fate.of.the.Furious.2017.1080p.BrRip.DTS.x264.One2loadup.com
Writing library : x264 core 130 r2273 b3065e6
Encoding settings : cabac=1 / ref=3 / deblock=1:0:0 / analyse=0x3:0x113 / me=umh / subme=11 / psy=1 / psy_rd=1.00:0.00 / mixed_ref=1 / me_range=48 / chroma_me=1 / trellis=2 / 8x8dct=1 / cqm=0 / deadzone=21,11 / fast_pskip=1 / chroma_qp_offset=-2 / threads=24 / lookahead_threads=2 / sliced_threads=0 / nr=0 / decimate=1 / interlaced=0 / bluray_compat=0 / constrained_intra=0 / bframes=3 / b_pyramid=2 / b_adapt=1 / b_bias=0 / direct=1 / weightb=1 / open_gop=0 / weightp=2 / keyint=240 / keyint_min=24 / scenecut=40 / intra_refresh=0 / rc_lookahead=40 / rc=2pass / mbtree=1 / bitrate=3003 / ratetol=1.0 / qcomp=0.60 / qpmin=0 / qpmax=69 / qpstep=4 / cplxblur=20.0 / qblur=0.5 / ip_ratio=1.40 / aq=1:1.00
Language : English
Default : Yes
Forced : No
Color range : Limited
Color primaries : BT.709
Transfer characteristics : BT.709
Matrix coefficients : BT.709

Audio #1
ID : 2
Format : DTS
Format/Info : Digital Theater Systems
Mode : 16
Format settings, Endianness : Big
Codec ID : A_DTS
Duration : 2 h 15 min
Bit rate mode : Constant
Bit rate : 768 kb/s
Channel(s) : 6 channels
Channel positions : Front: L C R, Side: L R, LFE
Sampling rate : 48.0 kHz
Frame rate : 93.750 FPS (512 SPF)
Bit depth : 24 bits
Compression mode : Lossy
Stream size : 747 MiB (16%)
Title : Thai DTS BluRay Master
Language : Thai
Default : Yes
Forced : Yes

Audio #2
ID : 3
Format : DTS
Format/Info : Digital Theater Systems
Mode : 16
Format settings, Endianness : Big
Codec ID : A_DTS
Duration : 2 h 15 min
Bit rate mode : Constant
Bit rate : 755 kb/s
Channel(s) : 6 channels
Channel positions : Front: L C R, Side: L R, LFE
Sampling rate : 48.0 kHz
Frame rate : 93.750 FPS (512 SPF)
Bit depth : 24 bits
Compression mode : Lossy
Stream size : 734 MiB (16%)
Title : English DTS
Language : English
Default : No
Forced : No

Text #1
ID : 4
Format : VobSub
Codec ID : S_VOBSUB
Codec ID/Info : Picture based subtitle format used on DVDs
Title : Thai For Non-English Part Only
Language : Thai
Default : Yes
Forced : Yes

Text #2
ID : 5
Format : VobSub
Codec ID : S_VOBSUB
Codec ID/Info : Picture based subtitle format used on DVDs
Title : Thai 480p
Language : Thai
Default : No
Forced : No

Text #3
ID : 6
Format : VobSub
Codec ID : S_VOBSUB
Codec ID/Info : Picture based subtitle format used on DVDs
Title : Thai 720p
Language : Thai
Default : No
Forced : No

Text #4
ID : 7
Format : VobSub
Codec ID : S_VOBSUB
Codec ID/Info : Picture based subtitle format used on DVDs
Title : Thai 1080p Master
Language : Thai
Default : No
Forced : No

Text #5
ID : 8
Format : VobSub
Codec ID : S_VOBSUB
Codec ID/Info : Picture based subtitle format used on DVDs
Title : Thai 1080p Yellow
Language : Thai
Default : No
Forced : No

Text #6
ID : 9
Format : VobSub
Codec ID : S_VOBSUB
Codec ID/Info : Picture based subtitle format used on DVDs
Title : Thai 1080p Out
Language : Thai
Default : No
Forced : No

Text #7
ID : 10
Format : VobSub
Codec ID : S_VOBSUB
Codec ID/Info : Picture based subtitle format used on DVDs
Title : Thai 1080p BIG
Language : Thai
Default : No
Forced : No

Text #8
ID : 11
Format : VobSub
Codec ID : S_VOBSUB
Codec ID/Info : Picture based subtitle format used on DVDs
Title : Thai 1080p Out [BIG]
Language : Thai
Default : No
Forced : No

Text #9
ID : 12
Format : PGS
Codec ID : S_HDMV/PGS
Codec ID/Info : Picture based subtitle format used on BDs/HD-DVDs
Title : Thai PGS BluRay Master
Language : Thai
Default : No
Forced : No

Text #10
ID : 13
Format : PGS
Codec ID : S_HDMV/PGS
Codec ID/Info : Picture based subtitle format used on BDs/HD-DVDs
Title : Thai PGS Yellow
Language : Thai
Default : No
Forced : No

Text #11
ID : 14
Format : PGS
Codec ID : S_HDMV/PGS
Codec ID/Info : Picture based subtitle format used on BDs/HD-DVDs
Title : Thai PGS Out
Language : Thai
Default : No
Forced : No

Text #12
ID : 15
Format : PGS
Codec ID : S_HDMV/PGS
Codec ID/Info : Picture based subtitle format used on BDs/HD-DVDs
Title : English
Language : English
Default : No
Forced : No

Menu
00:00:00.000 : en:Chapter 1
00:20:31.773 : en:Chapter 3
00:26:39.641 : en:Chapter 4
00:32:27.781 : en:Chapter 5
00:43:36.617 : en:Chapter 7
00:56:01.737 : en:Chapter 9
01:04:09.308 : en:Chapter 10
01:29:30.954 : en:Chapter 14
01:45:01.718 : en:Chapter 17
01:53:02.866 : en:Chapter 18
02:06:46.106 : en:Chapter 20

DOWNLOAD


PART01 |||| PART02 |||| PART03 |||| PART04 |||| PART05

PART01 |||| PART02 |||| PART03 |||| PART04 |||| PART05

PART01 |||| PART02 |||| PART03 |||| PART04 |||| PART05

PART01 |||| PART02 |||| PART03 |||| PART04 |||| PART05


9 Comments
  1. ซันครับ says

    พาร์ 3 ลิ๊งเสียหายทุกแบบเลยครับ โหลดไม่ได้

    1. Admin
      Admin says

      แก้ไขเรียบร้อยแล้วเด้อ

      1. ซันครับ says

        ขอบคุณ แอดมินมากครับ

  2. Sopononline says

    พาส 2 เสียหมดเลยครับ

    1. Admin
      Admin says

      แก้ไขเรียบร้อยฮ๊ะ

  3. Chanisorn Puteng
    Chanisorn Puteng says

    VIP โหลดไม่ได้ครับ

    1. Admin
      Admin says

      โหลดได้ปกตินะฮ๊ะ

  4. Gundam Akkhaphon
    Gundam Akkhaphon says

    VIP โหลดไม่ได้ครับ

    1. Admin
      Admin says

      ทดสอบโหลดได้ปกตินะฮ๊ะ

Leave A Reply

Your email address will not be published.

%d bloggers like this: