เว็บโหลดหนัง HD MINI-HD SUPER-HQ Full-HD 1080p One2up VIP Master Zoom ซูม หนังใหม่ ออนไลน์ มาสเตอร์ ไทย จีน ฝรั่ง การ์ตูน

[MINI Super-HQ] The Bourne Legacy (2012) พลิกแผนล่า ยอดจารชน ภาค 4 [1080p] [พากย์ไทย DTS + เสียงอังกฤษ DTS] [บรรยายไทย + อังกฤษ] [เสียงไทย + ซับไทย] [ONE2UP]

3

โหลดหนัง The Bourne Legacy (2012) พลิกแผนล่า ยอดจารชน ภาค 4

เรื่องย่อ The Bourne Legacy (2012) พลิกแผนล่า ยอดจารชน ภาค 4

ผู้อยู่เบื้องหลังความสำเร็จในการสร้างเรื่องราวของหนังชุดบอร์น โทนี่ กิลรอย กลับมาขยายโลกของบอร์นอีกครั้งในบทต่อมาของภาพยนตร์แอ็คชั่นมันส์เดือดชุดนี้ The Bourne Legacy จะแนะนำคุณให้รู้จักกับฮีโร่คนใหม่ แอรอน ครอส (เจเรมี่ เรนเนอร์) ที่ชีวิตของเขาจะเป็นหรือตายนั้นเป็นผลมาจากเหตุการณ์ในสามภาคแรกใน The Bournr Lagacy เจเรมี่ นำทีมดาราชุดใหม่อย่าง ราเชล ไวซ์ และ เอ็ดเวิร์ด นอร์ตัน ประกบกับทีมนักแสดงชุดเดิมจากภาคก่อนๆที่กลับมารับบทเดิมกันอย่างถ้วนหน้าทั้ง อัลเบิร์ต ฟินนี่ย์ โจน อัลเลน เดวิด สแตรทเทิร์น และ สก็อตต์ เกล็นน์ !!!

Complete name : [MINI Super-HQ]_The.Bourne.Legacy.2012.BluRay.1080p.DTS.x264.One2loadup.com.mkv
Format : Matroska
Format version : Version 4 / Version 2
File size : 4.24 GiB
Duration : 2 h 14 min
Overall bit rate : 4 496 kb/s
Movie name : [MINI Super-HQ]_The.Bourne.Legacy.2012.BluRay.1080p.DTS.x264.One2loadup.com
Encoded date : UTC 2016-07-25 03:17:35
Writing application : mkvmerge v9.3.1 (‘Mask Machine’) 64bit
Writing library : libebml v1.3.4 + libmatroska v1.4.5

Video
ID : 1
Format : AVC
Format/Info : Advanced Video Codec
Format profile : [email protected]
Format settings : CABAC / 9 Ref Frames
Format settings, CABAC : Yes
Format settings, ReFrames : 9 frames
Codec ID : V_MPEG4/ISO/AVC
Duration : 2 h 14 min
Bit rate : 2 950 kb/s
Width : 1 920 pixels
Height : 800 pixels
Display aspect ratio : 2.40:1
Frame rate mode : Constant
Frame rate : 23.976 (24000/1001) FPS
Color space : YUV
Chroma subsampling : 4:2:0
Bit depth : 8 bits
Scan type : Progressive
Bits/(Pixel*Frame) : 0.080
Stream size : 2.78 GiB (66%)
Title : [MINI Super-HQ]_The.Bourne.Legacy.2012.BluRay.1080p.DTS.x264.One2loadup.com
Writing library : x264 core 146 r2538 121396c
Encoding settings : cabac=1 / ref=9 / deblock=1:-3:-3 / analyse=0x3:0x133 / me=tesa / subme=11 / psy=1 / psy_rd=1.00:0.15 / mixed_ref=1 / me_range=32 / chroma_me=1 / trellis=2 / 8x8dct=1 / cqm=0 / deadzone=21,11 / fast_pskip=1 / chroma_qp_offset=-3 / threads=24 / lookahead_threads=4 / sliced_threads=0 / nr=0 / decimate=1 / interlaced=0 / bluray_compat=0 / constrained_intra=0 / bframes=8 / b_pyramid=2 / b_adapt=2 / b_bias=0 / direct=3 / weightb=1 / open_gop=0 / weightp=2 / keyint=250 / keyint_min=23 / scenecut=40 / intra_refresh=0 / rc_lookahead=60 / rc=2pass / mbtree=1 / bitrate=2950 / ratetol=1.0 / qcomp=0.60 / qpmin=0 / qpmax=69 / qpstep=4 / cplxblur=20.0 / qblur=0.5 / ip_ratio=1.40 / aq=1:1.90
Language : English
Default : Yes
Forced : No

Audio #1
ID : 2
Format : DTS
Format/Info : Digital Theater Systems
Codec ID : A_DTS
Duration : 2 h 14 min
Bit rate mode : Constant
Bit rate : 755 kb/s
Channel(s) : 6 channels
Channel positions : Front: L C R, Side: L R, LFE
Sampling rate : 48.0 kHz
Frame rate : 93.750 FPS (512 SPF)
Bit depth : 24 bits
Compression mode : Lossy
Stream size : 728 MiB (17%)
Title : ENGLISH DTS @755Kbps
Language : English
Default : Yes
Forced : No

Audio #2
ID : 3
Format : DTS
Format/Info : Digital Theater Systems
Codec ID : A_DTS
Duration : 2 h 14 min
Bit rate mode : Constant
Bit rate : 768 kb/s
Channel(s) : 6 channels
Channel positions : Front: L C R, Side: L R, LFE
Sampling rate : 48.0 kHz
Frame rate : 93.750 FPS (512 SPF)
Bit depth : 24 bits
Compression mode : Lossy
Stream size : 741 MiB (17%)
Title : THAI DTS @768Kbps
Language : Thai
Default : No
Forced : No

Text #1
ID : 4
Format : VobSub
Muxing mode : zlib
Codec ID : S_VOBSUB
Codec ID/Info : Picture based subtitle format used on DVDs
Duration : 2 h 4 min
Bit rate : 1 461 b/s
Count of elements : 1451
Stream size : 1.30 MiB (0%)
Title : TH 480P
Language : Thai
Default : Yes
Forced : No

Text #2
ID : 5
Format : VobSub
Muxing mode : zlib
Codec ID : S_VOBSUB
Codec ID/Info : Picture based subtitle format used on DVDs
Duration : 2 h 4 min
Bit rate : 2 662 b/s
Count of elements : 1451
Stream size : 2.37 MiB (0%)
Title : TH 480P
Language : Thai
Default : No
Forced : No

Text #3
ID : 6
Format : VobSub
Muxing mode : zlib
Codec ID : S_VOBSUB
Codec ID/Info : Picture based subtitle format used on DVDs
Duration : 2 h 4 min
Bit rate : 3 915 b/s
Count of elements : 1451
Stream size : 3.48 MiB (0%)
Title : TH 1080P
Language : Thai
Default : No
Forced : No

Text #4
ID : 7
Format : PGS
Muxing mode : zlib
Codec ID : S_HDMV/PGS
Codec ID/Info : Picture based subtitle format used on BDs/HD-DVDs
Duration : 2 h 4 min
Bit rate : 7 820 b/s
Count of elements : 2904
Stream size : 6.95 MiB (0%)
Title : TH PGS
Language : Thai
Default : No
Forced : No

Text #5
ID : 8
Format : PGS
Muxing mode : zlib
Codec ID : S_HDMV/PGS
Codec ID/Info : Picture based subtitle format used on BDs/HD-DVDs
Duration : 2 h 2 min
Bit rate : 10.8 kb/s
Count of elements : 3174
Stream size : 9.48 MiB (0%)
Title : EN PGS
Language : English
Default : No
Forced : No

DOWNLOAD


PART01 |||| PART02 |||| PART03 |||| PART04 |||| PART05

PART01 |||| PART02 |||| PART03 |||| PART04 |||| PART05

PART01 |||| PART02 |||| PART03 |||| PART04 |||| PART05

PART01 |||| PART02 |||| PART03 |||| PART04 |||| PART05


3 Comments
  1. kanna says

    one2up เรื่อง The Bourne Legacy (2012) พลิกแผนล่า ยอดจารชน ภาค 4 พาร์ท 3 กับ 4 ลิ้งค์ซ้ำกันครับ

    1. Admin
      Admin says

      แก้ให้แล้วฮ๊ะ

  2. kanna says

    ขอบคุณครับ

Leave A Reply

Your email address will not be published.

%d bloggers like this: