เว็บโหลดหนัง HD MINI-HD SUPER-HQ Full-HD 1080p One2up VIP Master Zoom ซูม หนังใหม่ ออนไลน์ มาสเตอร์ ไทย จีน ฝรั่ง การ์ตูน

[MINI Super-HQ] The Bourne Identity (2002) ล่าจารชน ยอดคนอันตราย ภาค 1 [1080p] [พากย์ไทย DTS + เสียงอังกฤษ DTS] [บรรยายไทย + อังกฤษ] [เสียงไทย + ซับไทย] [ONE2UP]

0

The Bourne Identity (2002) ล่าจารชน ยอดคนอันตราย ภาค 1

โหลดหนัง The Bourne Identity (2002) ล่าจารชน ยอดคนอันตราย ภาค 1 

เรื่องย่อ The Bourne Identity (2002) ล่าจารชน ยอดคนอันตราย ภาค 1

เรื่องราวเปิดฉากที่ผู้สูญเสียความทรงจำคนหนึ่ง (แม็ท เดมอน) ได้รับการช่วยชีวิตจากทะเลโดยลูกเรือของเรือหาปลาอิตาลีเขาอยู่ในสภาพเกือบตายไม่มีสมบัติอะไรเลย มีเพียงลูกกระสุนที่หลังกับหมายเลขบัญชีธนาคารในสวิส ที่ฝังไว้ในสะโพกเท่านั้นเขาสูญเสียความทรงจำอย่างสิ้นเชิง แต่เขาก็มีทักษะพิเศษทั้งภาษาศาสตร์ การต่อสู้และศิลปะการป้องกันตนเองซึ่งสะท้อนอดีตที่น่ากลัวของเขาในกล่องนิรภัยของธนาคารที่สวิสมีพาสปอร์ตประเทศต่างๆ เงินสดก้อนใหญ่ ปืน และชื่อ..เจสัน บอร์น… และที่อยู่ในปารีส สิ่งเหล่านี้ยังคงเป็นปริศนาสำหรับเขา แต่บอร์นตระหนักในทันทีว่าแม้ว่าเขาจะไม่รู้จักใครเลย ก็ยังมีคนที่รู้จักเขาและคิดร้ายกับเขาเมื่อเขาพบกับมารี ครูทซ์ (แฟรนก้า โปเทนเท) บอร์นต้องจ่ายถึง 10,000 เหรียญ ให้มาสำหรับการขับรถพาเขาไปปารีสแต่มารีหารู้ไม่ว่าการเดินทางครั้งนี้จะทำให้ชีวิตของเธอเปลี่ยนแปลงไปโดยสิ้นเชิงด้วยโครงเรื่องที่ปราดเปรื่อง ฉากแอ็คชั่นต่อเนื่องการขับรถไล่ล่าผ่านตัวเมืองปารีสและฉากต่อสู้อันตื่น เต้นระทึกใจ The Bourne Identity จะทำให้คุณลืมหายใจ !!!

Complete name : [MINI Super-HQ]_The.Bourne.Identity.2002.BluRay.1080p.DTS.x264.One2loadup.com.mkv
Format : Matroska
Format version : Version 4 / Version 2
File size : 4.30 GiB
Duration : 1 h 58 min
Overall bit rate mode : Variable
Overall bit rate : 5 191 kb/s
Movie name : [MINI Super-HQ]_The.Bourne.Identity.2002.BluRay.1080p.DTS.x264.One2loadup.com
Encoded date : UTC 2010-02-22 21:41:31
Writing application : mkvmerge v5.9.0 (‘On The Loose’) built on Dec 9 2012 15:37:01
Writing library : libebml v1.3.0 + libmatroska v1.4.0

Video
ID : 1
Format : AVC
Format/Info : Advanced Video Codec
Format profile : [email protected]
Format settings : CABAC / 4 Ref Frames
Format settings, CABAC : Yes
Format settings, ReFrames : 4 frames
Codec ID : V_MPEG4/ISO/AVC
Duration : 1 h 58 min
Bit rate mode : Variable
Bit rate : 3 580 kb/s
Maximum bit rate : 100.0 Mb/s
Width : 1 920 pixels
Height : 816 pixels
Display aspect ratio : 2.35:1
Frame rate mode : Constant
Frame rate : 23.976 FPS
Color space : YUV
Chroma subsampling : 4:2:0
Bit depth : 8 bits
Scan type : Progressive
Bits/(Pixel*Frame) : 0.095
Stream size : 2.95 GiB (69%)
Title : [MINI Super-HQ]_The.Bourne.Identity.2002.BluRay.1080p.DTS.x264.One2loadup.com
Writing library : x264 core 130 r2273 b3065e6
Encoding settings : cabac=1 / ref=4 / deblock=1:0:0 / analyse=0x3:0x133 / me=umh / subme=11 / psy=1 / psy_rd=1.00:0.15 / mixed_ref=1 / me_range=64 / chroma_me=1 / trellis=2 / 8x8dct=1 / cqm=0 / deadzone=21,11 / fast_pskip=1 / chroma_qp_offset=-3 / threads=16 / lookahead_threads=1 / sliced_threads=0 / nr=0 / decimate=1 / interlaced=0 / bluray_compat=0 / constrained_intra=0 / bframes=4 / b_pyramid=2 / b_adapt=2 / b_bias=0 / direct=3 / weightb=1 / open_gop=0 / weightp=2 / keyint=250 / keyint_min=23 / scenecut=40 / intra_refresh=0 / rc_lookahead=100 / rc=2pass / mbtree=1 / bitrate=3580 / ratetol=1.0 / qcomp=0.60 / qpmin=0 / qpmax=69 / qpstep=4 / cplxblur=20.0 / qblur=0.5 / vbv_maxrate=99999 / vbv_bufsize=99999 / nal_hrd=vbr / ip_ratio=1.40 / aq=1:1.00
Language : English
Default : Yes
Forced : No

Audio #1
ID : 2
Format : DTS
Format/Info : Digital Theater Systems
Codec ID : A_DTS
Duration : 1 h 58 min
Bit rate mode : Constant
Bit rate : 768 kb/s
Channel(s) : 6 channels
Channel positions : Front: L C R, Side: L R, LFE
Sampling rate : 48.0 kHz
Frame rate : 93.750 FPS (512 SPF)
Bit depth : 24 bits
Compression mode : Lossy
Stream size : 652 MiB (15%)
Title : [THAI DTS FROM BLU-RAY MASTER]
Language : Thai
Default : Yes
Forced : No

Audio #2
ID : 3
Format : DTS
Format/Info : Digital Theater Systems
Codec ID : A_DTS
Duration : 1 h 58 min
Bit rate mode : Constant
Bit rate : 755 kb/s
Channel(s) : 6 channels
Channel positions : Front: L C R, Side: L R, LFE
Sampling rate : 48.0 kHz
Frame rate : 93.750 FPS (512 SPF)
Bit depth : 24 bits
Compression mode : Lossy
Stream size : 640 MiB (15%)
Title : [ENGLISH DTS FROM BLU-RAY MASTER]
Language : English
Default : No
Forced : No

Text #1
ID : 4
Format : VobSub
Codec ID : S_VOBSUB
Codec ID/Info : Picture based subtitle format used on DVDs
Title : [SUB THAI 480P FROM BLU-RAY]
Language : Thai
Default : No
Forced : No

Text #2
ID : 5
Format : VobSub
Codec ID : S_VOBSUB
Codec ID/Info : Picture based subtitle format used on DVDs
Title : [SUB THAI 1080P FROM BLU-RAY]
Language : Thai
Default : No
Forced : No

Text #3
ID : 6
Format : PGS
Codec ID : S_HDMV/PGS
Codec ID/Info : Picture based subtitle format used on BDs/HD-DVDs
Title : [SUB THAI PGS FROM BLU-RAY]
Language : Thai
Default : No
Forced : No

Text #4
ID : 7
Format : PGS
Codec ID : S_HDMV/PGS
Codec ID/Info : Picture based subtitle format used on BDs/HD-DVDs
Title : [SUB THAI PGS FROM BLU-RAY] UNDER
Language : Thai
Default : No
Forced : No

Text #5
ID : 8
Format : PGS
Codec ID : S_HDMV/PGS
Codec ID/Info : Picture based subtitle format used on BDs/HD-DVDs
Title : [SUB ENGLISH PGS FROM BLU-RAY]
Language : English
Default : No
Forced : No

Text #6
ID : 9
Format : VobSub
Codec ID : S_VOBSUB
Codec ID/Info : Picture based subtitle format used on DVDs
Title : [SUB ENGLISH 480P FROM BLU-RAY]
Language : English
Default : No
Forced : No

DOWNLOAD


PART01 |||| PART02 |||| PART03 |||| PART04 |||| PART05

PART01 |||| PART02 |||| PART03 |||| PART04 |||| PART05

PART01 |||| PART02 |||| PART03 |||| PART04 |||| PART05

PART01 |||| PART02 |||| PART03 |||| PART04 |||| PART05


Leave A Reply

Your email address will not be published.

%d bloggers like this: