เว็บโหลดหนัง HD MINI-HD SUPER-HQ Full-HD 1080p One2up VIP Master Zoom ซูม หนังใหม่ ออนไลน์ มาสเตอร์ ไทย จีน ฝรั่ง การ์ตูน

[MINI-HD] Suddenly Twenty (2016) 20 ใหม่ ยูเทิร์นวัย หัวใจรีเทิร์น [720p] [พากย์ไทย 5.1] [DVDRip] [เสียงไทย] [ONE2UP]

0

โหลดหนัง  Suddenly Twenty (2016) 20 ใหม่ ยูเทิร์นวัย หัวใจรีเทิร์น

เรื่องย่อ Suddenly Twenty (2016) 20 ใหม่ ยูเทิร์นวัย หัวใจรีเทิร์น

ยายป่าน หญิงสูงวัยที่ปากจัด แต่แล้วโชคชะตากลับให้โอกาสกับยายป่านอีกครั้ง ทำให้ยายป่านย้อนวัยกลับไปสู่วัยสาว เธอเปลี่ยนชื่อของตัวเองว่าปาน เธอกลับไปทำในสิ่งที่ตัวเองไม่เคยได้ทำในอดีต รวมถึงวิ่งหาความฝันที่ยังไม่สำเร็จที่อยากเป็นนักร้องผู้มีชื่อเสียงของเธอ ยายป่านตัดสินใจเข้าร่วมวงดนตรีของบูมหลานรัก ที่แอบหลงรักยายตัวเองโดยไม่รู้ตัว

Complete name : [MINI-HD]_Suddenly.Twenty.2016.720p.DVDRip.One2loadup.com.mkv
Format : Matroska
Format version : Version 4 / Version 2
File size : 4.08 GiB
Duration : 2 h 4 min
Overall bit rate mode : Constant
Overall bit rate : 4 699 kb/s
Movie name : [MINI-HD]_Suddenly.Twenty.2016.720p.DVDRip.One2loadup.com
Encoded date : UTC 2017-06-21 10:50:12
Writing application : mkvmerge v10.0.0 (‘To Drown In You’) 64bit
Writing library : libebml v1.3.4 + libmatroska v1.4.5

Video
ID : 1
Format : MPEG Video
Format version : Version 2
Format profile : [email protected]
Format settings : CustomMatrix / BVOP
Format settings, BVOP : Yes
Format settings, Matrix : Custom
Format settings, GOP : M=3, N=13
Codec ID : V_MPEG2
Codec ID/Info : MPEG 1 or 2 Video
Duration : 2 h 4 min
Bit rate mode : Constant
Bit rate : 4 248 kb/s
Maximum bit rate : 6 800 kb/s
Width : 720 pixels
Height : 576 pixels
Display aspect ratio : 16:9
Frame rate mode : Constant
Frame rate : 25.000 FPS
Standard : PAL
Color space : YUV
Chroma subsampling : 4:2:0
Bit depth : 8 bits
Scan type : Progressive
Compression mode : Lossy
Bits/(Pixel*Frame) : 0.410
Time code of first frame : 00:00:00:00
Time code source : Group of pictures header
GOP, Open/Closed : Closed
Stream size : 3.69 GiB (90%)
Title : [MINI-HD]_Suddenly.Twenty.2016.720p.DVDRip.One2loadup.com
Writing library : TMPGEnc XPress 4.7.7.307
Language : English
Default : No
Forced : No
Color primaries : BT.601 PAL
Transfer characteristics : BT.470 System B, BT.470 System G
Matrix coefficients : BT.470 System B, BT.470 System G

Audio
ID : 2
Format : AC-3
Format/Info : Audio Coding 3
Codec ID : A_AC3
Duration : 2 h 4 min
Bit rate mode : Constant
Bit rate : 448 kb/s
Channel(s) : 6 channels
Channel positions : Front: L C R, Side: L R, LFE
Sampling rate : 48.0 kHz
Frame rate : 31.250 FPS (1536 SPF)
Bit depth : 16 bits
Compression mode : Lossy
Stream size : 398 MiB (10%)
Title : Thai Surround 5.1
Language : Thai
Service kind : Complete Main
Default : Yes
Forced : No

DOWNLOAD


PART01 |||| PART02 |||| PART03 |||| PART04 |||| PART05

PART01 |||| PART02 |||| PART03 |||| PART04 |||| PART05

PART01 |||| PART02 |||| PART03 |||| PART04 |||| PART05

PART01 |||| PART02 |||| PART03 |||| PART04 |||| PART05


Leave A Reply

Your email address will not be published.

%d bloggers like this: