โหลดหนัง HD MINI-HD SUPER-HQ Full-HD 1080p VIP Master Zoom ซูม หนังใหม่ ออนไลน์ มาสเตอร์ ไทย จีน ฝรั่ง การ์ตูน

[MINI-HD] Smurfs The Lost Village (2017) สเมิร์ฟ หมู่บ้านที่สาบสูญ [MASTER] [พากย์ไทย +อังกฤษ] [บรรยายไทย + อังกฤษ]-Encode.AC-3.1080p [ONE2UP]

1

โหลดหนัง  [MINI-HD] Smurfs The Lost Village (2017) สเมิร์ฟ หมู่บ้านที่สาบสูญ [MASTER] [พากย์ไทย +อังกฤษ] [บรรยายไทย + อังกฤษ]-Encode.AC-3.1080p [ONE2UP]

สเมิร์ฟ กลับมาแล้ว และในการกลับมาคราวนี้พวกเขาเหล่า สเมิร์ฟ จอมซนได้แก่ สเมิร์ฟเฟ็ตต์ และเพื่อนๆของเธอ คลัมซี่ เบรนนี่ และสเมิร์ฟ เริ่มออกเดินทางหลังจากที่พวกเขาค้นพบแผนที่ลึกลับ
ของหมู่บ้านที่สาบสูญ พวกเธอจึงเดินทางออกตามหาหมู่บ้าน ก่อนที่พ่อมดร้ายกาจอย่าง การ์กาเมล จะพบเจอหมู่บ้านก่อนพวกเธอ

Complete name : [Mini-HD]_Smurfs The Lost Village (2017)1080p.One2loadup.com.mkv
Format : Matroska
Format version : Version 4 / Version 2
File size : 3.64 GiB
Duration : 1 h 29 min
Overall bit rate : 5 798 kb/s
Encoded date : UTC 2017-06-28 09:32:20
Writing application : mkvmerge v12.0.0 (‘Trust / Lust’) 32bit
Writing library : libebml v1.3.4 + libmatroska v1.4.5

Video
ID : 2
Format : AVC
Format/Info : Advanced Video Codec
Format profile : [email protected]
Format settings, CABAC : Yes
Format settings, RefFrames : 4 frames
Codec ID : V_MPEG4/ISO/AVC
Duration : 1 h 29 min
Bit rate : 5 092 kb/s
Width : 1 920 pixels
Height : 1 028 pixels
Display aspect ratio : 1.85:1
Frame rate mode : Constant
Frame rate : 23.976 (23976/1000) FPS
Color space : YUV
Chroma subsampling : 4:2:0
Bit depth : 8 bits
Scan type : Progressive
Bits/(Pixel*Frame) : 0.108
Stream size : 3.19 GiB (88%)
Language : English
Default : Yes
Forced : No
Color range : Limited
Color primaries : BT.709
Transfer characteristics : BT.709
Matrix coefficients : BT.709

Audio #1
ID : 1
Format : AAC
Format/Info : Advanced Audio Codec
Format profile : LC
Codec ID : A_AAC
Duration : 1 h 29 min
Bit rate : 127 kb/s
Channel(s) : 2 channels
Channel positions : Front: L R
Sampling rate : 48.0 kHz
Frame rate : 46.875 FPS (1024 SPF)
Compression mode : Lossy
Delay relative to video : -42 ms
Stream size : 81.4 MiB (2%)
Title : English AAC Stereo
Language : English
Default : No
Forced : No

Audio #2
ID : 3
Format : AC-3
Format/Info : Audio Coding 3
Format settings, Endianness : Big
Codec ID : A_AC3
Duration : 1 h 29 min
Bit rate mode : Constant
Bit rate : 384 kb/s
Channel(s) : 6 channels
Channel positions : Front: L C R, Side: L R, LFE
Sampling rate : 48.0 kHz
Frame rate : 31.250 FPS (1536 SPF)
Bit depth : 16 bits
Compression mode : Lossy
Delay relative to video : -42 ms
Stream size : 247 MiB (7%)
Title : English AC3 5.1
Language : English
Service kind : Complete Main
Default : No
Forced : No

Audio #3
ID : 4
Format : AAC
Format/Info : Advanced Audio Codec
Format profile : LC
Codec ID : A_AAC
Duration : 1 h 29 min
Bit rate : 127 kb/s
Channel(s) : 2 channels
Channel positions : Front: L R
Sampling rate : 48.0 kHz
Frame rate : 46.875 FPS (1024 SPF)
Compression mode : Lossy
Delay relative to video : -42 ms
Stream size : 81.4 MiB (2%)
Title : Thai AAC Stereo
Language : Thai
Default : Yes
Forced : Yes

Text #1
ID : 5
Format : PGS
Muxing mode : zlib
Codec ID : S_HDMV/PGS
Codec ID/Info : Picture based subtitle format used on BDs/HD-DVDs
Duration : 1 h 27 min
Bit rate : 21.7 kb/s
Count of elements : 2186
Stream size : 13.6 MiB (0%)
Title : Thai PGS Yellow
Language : Thai
Default : No
Forced : No

Text #2
ID : 6
Format : PGS
Muxing mode : zlib
Codec ID : S_HDMV/PGS
Codec ID/Info : Picture based subtitle format used on BDs/HD-DVDs
Duration : 1 h 27 min
Bit rate : 21.5 kb/s
Count of elements : 2186
Stream size : 13.5 MiB (0%)
Title : Thai PGS
Language : Thai
Default : No
Forced : No

Text #3
ID : 7
Format : PGS
Muxing mode : zlib
Codec ID : S_HDMV/PGS
Codec ID/Info : Picture based subtitle format used on BDs/HD-DVDs
Duration : 1 h 25 min
Bit rate : 23.1 kb/s
Count of elements : 2190
Stream size : 14.1 MiB (0%)
Title : English PGS
Language : English
Default : No
Forced : No

Menu
00:00:00.000 : en:1
00:08:49.446 : en:2
00:11:04.414 : en:3
00:14:34.749 : en:4
00:21:22.072 : en:5
00:27:26.144 : en:6
00:30:34.540 : en:7
00:36:50.082 : en:8
00:42:42.350 : en:9
00:45:59.672 : en:10
00:50:36.949 : en:11
00:57:04.586 : en:12
01:02:36.292 : en:13
01:09:08.767 : en:14
01:14:40.473 : en:15
01:19:35.476 : en:16

 



PART01 |||| PART02 |||| PART03 |||| PART04


PART01 |||| PART02 |||| PART03 |||| PART04


PART01 |||| PART02 |||| PART03 |||| PART04


1 Comment
  1. Tonkmutt
    Tonkmutt says

    โหลดไม่ได้แล้วครับ

Leave A Reply

Your email address will not be published.

%d bloggers like this: